<?xml version="1.0" standalone="no"?>
<!DOCTYPE svg PUBLIC "-//W3C//DTD SVG 1.1//EN" "http://www.w3.org/Graphics/SVG/1.1/DTD/svg11.dtd">
<svg xmlns="http://www.w3.org/2000/svg">
<defs >
<font id="Arizonia" horiz-adv-x="346" ><font-face
    font-family="Arizonia"
    units-per-em="1000"
    panose-1="2 0 5 7 6 0 0 2 0 3"
    ascent="900"
    descent="-350"
    alphabetic="0" />
<glyph unicode=" " glyph-name="space" horiz-adv-x="267" />
<glyph unicode="!" glyph-name="exclam" horiz-adv-x="389" d="M365 542Q397 542 397 520Q397 504 340 456Q313 434 294 415T249 358T203 286T170 216Q142 148 166 137Q172 135 170 132T162 131Q127 149 127 195Q127 206 130 219Q140 285 175 356T242 463Q313
542 365 542ZM78 -7Q66 -7 57 1T47 18Q47 48 64 66Q88 91 114 91Q125 91 134 84T144 57T124 15T78 -7Z" />
<glyph unicode="&quot;" glyph-name="quotedbl" horiz-adv-x="314" d="M145 424T153 410T162 381T148 332T94 264Q49 226 8 226Q4 226 4 229T8 233Q51 237 87 274T129 356Q106 327 73 327Q61 327 54 334T46 349Q46 376 69 399Q94 424 119 424ZM268 356Q239 327
212 327Q200 327 193 334T185 349T188 370T210 402Q232 424 257 424T291 410T300 381T286 332T232 264Q188 226 147 226Q142 226 142 229T146 233Q190 237 226 274T268 356Z" />
<glyph unicode="#" glyph-name="numbersign" horiz-adv-x="712" d="M549 458L606 457Q675 457 695 461T715 456Q715 436 647 432Q617 431 566 430T486 427Q426 340 382 273Q536 273 599 285Q613 288 613 277T591 260Q531 245 361 240Q296 138 270 79Q266 70 262
70T256 71Q246 78 257 110T326 239Q301 239 258 239T141 240Q74 133 50 79Q46 70 42 70T36 71Q26 78 38 111T107 241Q37 243 33 248Q32 249 22 260T11 277T20 283L130 278Q170 343 221 421Q38 423 32 431Q31 432 21 442T10 458T19 465L244 457Q371 645 383 645L411
649Q422 649 422 645T417 634Q349 544 286 456Q332 455 376 455T464 456Q589 645 603 645L631 649Q642 649 642 645T637 634Q585 567 507 457Q524 458 549 458ZM443 425Q323 421 262 421Q242 393 164 277Q280 273 346 273Q389 343 443 425Z" />
<glyph unicode="$" glyph-name="dollar" horiz-adv-x="530" d="M452 320Q433 335 433 352T439 383Q464 448 538 498Q533 507 517 507T466 491Q411 412 345 305L365 296Q423 267 423 220T374 149Q344 133 294 130T241 127Q195 43 184 14T168 -15T163 -4Q163 26
219 127Q171 127 127 147T72 207Q111 171 206 171Q225 171 244 173L320 302Q290 314 268 336T246 381Q246 415 270 444T332 491Q386 517 470 536Q522 613 530 613L537 614L542 613Q547 613 547 608Q547 601 538 589T502 541Q507 542 517 542Q577 542 577 503Q577
500 577 493T556 464T512 420T469 370T452 320ZM432 480Q368 452 328 413T286 357T294 331T327 313Q357 363 432 480ZM382 236T382 253T359 285Q354 289 338 294Q315 257 268 176Q321 183 366 222Q382 236 382 253Z" />
<glyph unicode="%" glyph-name="percent" horiz-adv-x="653" d="M592 268Q628 249 628 205Q628 156 581 105T455 27Q418 14 387 14T340 39Q332 53 332 69T336 107T371 170T434 236Q484 278 542 278Q567 278 592 268ZM327 538Q336 534 355 534T427 550T498 566T517
558T507 536Q398 391 266 180T88 -140Q83 -151 79 -151T74 -140Q74 -90 219 158T438 504Q422 496 399 496T341 516Q346 503 346 489Q346 443 295 386Q249 336 172 310Q135 297 103 297T56 324Q49 337 49 353T53 391T89 454T152 520Q201 561 258 561L309 551Q321
544 327 538ZM222 514Q179 514 131 470T70 371Q68 360 68 352Q68 328 86 319Q94 315 109 315T161 330T230 380Q279 432 279 473Q279 497 261 505T222 514ZM351 68Q351 31 389 31Q408 31 445 46T520 103Q562 150 562 189Q562 213 544 222T506 231Q462 231 413 186T353
86Q351 76 351 68Z" />
<glyph unicode="&amp;" glyph-name="ampersand" horiz-adv-x="639" d="M291 9Q199 -13 142 -3Q39 15 11 69Q1 88 1 102T3 126Q9 157 41 192T132 259L184 288Q202 454 393 572Q468 619 519 619Q536 619 550 614Q583 602 583 571Q583 517 510 459Q470 426 423 398L249
294Q249 287 249 265T258 205Q334 248 424 263Q468 271 501 271Q583 271 594 219Q595 212 595 206Q595 172 558 135Q493 70 340 23Q401 -60 474 -90Q523 -111 550 -111T587 -100T598 -76T584 -46Q554 -7 496 -7Q490 -7 478 -8T465 -7Q462 1 479 4Q506 8 529 8Q593
8 620 -27Q634 -43 634 -59T622 -93Q599 -127 548 -127Q508 -127 464 -108Q361 -64 291 9ZM571 200Q571 228 513 228Q415 228 267 168Q288 97 330 36Q452 74 529 141Q571 177 571 200ZM93 24Q125 11 163 11Q225 11 278 22Q227 81 205 139Q171 119 164 112T156 104T156
111Q159 133 194 162L196 163Q182 210 182 253L153 235Q98 197 70 156T41 79T93 24ZM495 493T495 525T461 558Q422 558 368 521Q265 451 253 325Q271 336 314 360Q404 413 449 453Z" />
<glyph unicode="&apos;" glyph-name="quotesingle" horiz-adv-x="149" d="M145 424T153 410T162 381T148 332T94 264Q49 226 8 226Q4 226 4 229T8 233Q51 237 87 274T129 356Q106 327 73 327Q61 327 54 334T46 349Q46 376 69 399Q94 424 119 424Z" />
<glyph unicode="(" glyph-name="parenleft" horiz-adv-x="362" d="M380 648Q393 655 402 655T412 648T399 631Q345 596 294 516Q194 360 174 170Q171 148 171 128Q171 69 192 30Q200 15 231 10Q236 9 240 3T238 -7Q189 -25 123 -10Q88 -2 77 18Q64 41 64 80T72
163T97 261T141 371T204 479Q281 594 380 648Z" />
<glyph unicode=")" glyph-name="parenright" horiz-adv-x="399" d="M63 -44Q50 -52 41 -52T31 -45T44 -28Q98 8 149 88Q249 243 270 433Q272 455 272 475Q272 534 251 573Q244 588 212 593Q207 594 203 601T205 610Q226 619 259 619T323 612T366 585Q379 562 379
524T371 441T346 343T302 233T240 125Q162 10 63 -44Z" />
<glyph unicode="*" glyph-name="asterisk" horiz-adv-x="534" d="M500 236Q500 228 491 228Q389 218 303 197Q368 158 442 88Q451 79 446 73T433 72Q370 115 267 164Q229 56 185 -15Q181 -23 177 -23T169 -20T168 -9Q195 61 220 172Q131 152 35 148Q22 148 22
158Q22 165 31 166Q96 178 210 217Q147 277 90 355Q83 366 89 370T102 369Q150 319 245 248Q303 349 368 422Q372 427 377 427T385 423T384 413Q315 309 292 236Q383 250 421 250Q492 250 498 242Q500 239 500 236Z" />
<glyph unicode="+" glyph-name="plus" horiz-adv-x="438" d="M190 9Q190 -1 180 -1T169 11Q175 84 221 175Q177 170 95 156Q87 155 87 169T91 196T103 210Q173 217 244 217Q286 286 337 337Q343 343 352 343T374 340T381 331Q328 276 285 217Q380 216 430 202Q437
200 437 194T433 183T421 178Q379 182 339 182T259 178Q195 80 190 9Z" />
<glyph unicode="," glyph-name="comma" horiz-adv-x="229" d="M131 90T139 76T148 47T134 -2T80 -70T-3 -108Q-9 -108 -10 -104Q-8 -102 -6 -101Q38 -97 74 -60T116 22L111 18Q86 -7 60 -7Q48 -7 41 0T33 15T36 37T58 68Q80 90 105 90Z" />
<glyph unicode="-" glyph-name="hyphen" horiz-adv-x="438" d="M87 156T87 169T91 196T103 210Q172 217 233 217T348 209Q360 207 360 199T350 191Q278 189 199 175Q97 156 92 156Z" />
<glyph unicode="." glyph-name="period" horiz-adv-x="202" d="M78 -7Q66 -7 57 1T47 18Q47 48 64 66Q88 91 114 91Q125 91 134 84T144 57T124 15T78 -7Z" />
<glyph unicode="/" glyph-name="slash" horiz-adv-x="595" d="M448 584L483 589Q497 589 497 582Q496 577 491 570Q363 404 221 194T36 -118Q31 -129 24 -129Q21 -129 16 -126T11 -114Q11 -72 127 116T340 444T448 584Z" />
<glyph unicode="0" glyph-name="zero" horiz-adv-x="540" d="M460 404Q523 373 523 299Q523 274 510 240Q490 182 436 124Q369 51 257 4Q181 -27 136 -27Q28 -27 28 70Q28 204 191 341Q272 407 366 420Q378 421 389 421Q427 421 460 404ZM313 342Q252 342 182
285T76 139Q61 99 61 67Q61 26 94 10Q108 3 132 3T202 22Q272 53 337 123Q380 170 394 208T409 263Q409 312 378 327T313 342Z" />
<glyph unicode="1" glyph-name="one" horiz-adv-x="310" d="M46 272T128 335T265 426T342 454T374 448T383 440T382 436L377 435Q375 435 373 435Q348 435 318 402T256 308T200 191T148 71T111 -13Q62 -6 43 28Q38 37 38 53T48 99Q92 221 175 329Q118 291 27 242Q12
233 12 243T29 262Z" />
<glyph unicode="2" glyph-name="two" horiz-adv-x="583" d="M441 78Q487 63 510 38T533 -13T526 -38Q520 -38 522 -33T524 -24Q524 -11 502 2Q446 34 300 34Q214 34 171 25T98 7T51 -8T10 -18Q-26 -23 -26 3Q-26 25 -6 45Q37 86 133 104Q168 111 187 120Q357 193
412 224Q500 275 500 331Q500 363 475 386T419 413T362 418Q281 418 220 386T158 330Q158 313 190 313Q216 313 256 323Q337 343 372 380Q376 384 378 380Q380 375 380 371Q380 348 339 322T251 285T164 273T108 293Q102 301 102 310Q102 329 131 356T227 410Q340
455 433 455Q555 455 591 391Q603 374 603 354T592 310Q570 263 503 221T237 111Q351 109 441 78Z" />
<glyph unicode="3" glyph-name="three" horiz-adv-x="601" d="M237 411Q317 454 464 454Q527 454 564 427Q589 409 589 379T548 313T459 261Q504 257 532 235Q567 207 567 157Q567 93 503 31Q425 -45 255 -82Q201 -93 159 -93T85 -88Q5 -75 -4 -16Q-5 -10 -5 -4Q-5
64 124 117Q189 143 306 143Q369 143 382 130Q387 125 384 122T374 119T351 120T252 102T111 60T38 17T23 -10Q23 -37 71 -52Q102 -62 144 -62Q241 -62 354 -10Q486 50 486 122Q486 159 446 192T346 231Q316 233 316 247Q316 265 367 268T457 292T497 352Q497 398
447 417Q425 426 392 426T309 414T244 373Q241 367 241 362Q241 350 257 343Q291 327 315 324Q322 323 321 317Q317 313 283 313T212 329Q189 339 189 356Q189 385 237 411Z" />
<glyph unicode="4" glyph-name="four" horiz-adv-x="426" d="M277 162Q241 71 241 35T271 -16Q279 -24 248 -24Q189 -24 170 21Q162 38 162 69T188 158Q129 152 87 141T25 129T2 139Q0 141 0 144Q0 153 13 166T63 206T155 277T255 354Q418 474 471 474Q484 474
490 469T497 461Q497 457 487 457Q446 457 394 383T295 204Q365 199 401 180T438 131Q438 124 436 117T430 110T426 115T428 122Q428 138 391 150T277 162ZM303 357Q270 335 77 187Q127 200 210 205Q221 226 255 283T303 357Z" />
<glyph unicode="5" glyph-name="five" horiz-adv-x="612" d="M223 271Q281 282 321 282Q426 282 473 245Q509 214 509 174Q509 151 496 125Q442 14 243 -29Q190 -40 152 -40T88 -38Q12 -29 4 21Q3 26 3 32Q3 91 115 137Q172 159 276 159Q343 159 342 143Q341 139
334 139T314 140T228 124T99 85Q23 53 23 24Q23 18 27 12Q46 -23 140 -23T303 13Q426 76 426 137Q426 169 389 200Q366 219 316 231T206 243Q201 243 196 243L176 221Q165 209 150 215Q136 223 151 238Q239 314 297 377Q282 390 278 405Q269 435 282 443Q287 449
302 447T330 440Q366 426 396 419T468 411T560 420Q652 438 652 473Q652 480 655 481Q658 478 659 474Q658 435 623 405T540 363Q459 342 422 342Q356 342 315 365Q300 349 269 318T223 271Z" />
<glyph unicode="6" glyph-name="six" horiz-adv-x="485" d="M100 136Q82 84 82 55T101 20Q110 16 120 16Q150 16 194 42T267 98Q378 212 378 262Q378 278 362 278Q356 278 346 275Q294 259 211 187Q179 159 165 140Q150 122 145 129T156 156Q222 231 293 270T407
310Q430 310 450 297T471 258Q471 182 374 90Q309 28 216 0Q169 -14 134 -14Q77 -14 50 18T23 94T47 198Q96 318 215 411T468 527Q474 528 483 528T493 520Q493 514 479 511Q387 490 267 375T100 136Z" />
<glyph unicode="7" glyph-name="seven" horiz-adv-x="362" d="M111 437L107 413Q145 404 169 404T221 405T325 415T420 424T445 413Q443 413 442 413Q401 413 335 338Q285 284 215 192Q119 66 119 14Q119 -10 138 -20Q141 -22 138 -24Q134 -28 117 -28Q80 -28
66 -7T51 31Q51 77 118 152Q165 206 239 276T319 354Q298 342 220 342T99 384Q93 368 76 341Q39 285 30 301Q29 302 29 304T33 310Q50 325 63 356T77 420T92 453Q103 453 110 440Q111 438 111 437Z" />
<glyph unicode="8" glyph-name="eight" horiz-adv-x="456" d="M549 504Q549 517 558 517T567 502Q564 465 529 419Q531 412 531 402T527 381T520 368Q513 363 513 376Q513 391 511 397Q449 327 299 225Q348 209 375 183T402 127Q402 84 358 50T262 0T171 -15Q168
-15 166 -15Q99 -15 54 0Q3 18 3 56Q3 96 54 136Q97 169 144 195L218 235Q129 266 129 307Q129 353 178 394Q272 472 409 472Q479 472 517 439Q548 474 549 504ZM107 45Q107 4 177 4Q267 4 328 51Q370 84 370 119Q370 174 281 212L202 158Q107 89 107 45ZM422 347T496
417Q473 431 440 431T361 415Q279 386 242 339Q222 314 222 292T246 250Q422 347 496 417Z" />
<glyph unicode="9" glyph-name="nine" horiz-adv-x="441" d="M191 -53T177 -80T155 -128T148 -157T150 -178T168 -198Q173 -200 169 -202T163 -205Q102 -197 102 -143Q102 -53 197 76Q266 171 348 265Q356 275 352 276Q248 172 191 137T100 102T45 118Q14 141
14 184Q14 265 94 350Q154 414 243 440Q283 452 321 452T392 434Q449 399 449 343Q449 274 376 188Q361 169 343 147T301 96T255 38T212 -22ZM93 159Q93 131 117 131Q131 131 152 140Q208 164 295 251Q336 292 343 301T360 322Q372 338 383 360T394 393Q394 416
362 416Q325 416 269 382T179 309Q93 208 93 159Z" />
<glyph unicode=":" glyph-name="colon" horiz-adv-x="255" d="M234 234Q234 205 214 183T165 160Q157 160 147 168T137 195T157 236T207 258Q216 258 225 251T234 234ZM77 -7Q66 -7 56 1T46 18Q46 48 63 66Q87 91 113 91Q124 91 133 84T143 57T123 15T77 -7Z" />
<glyph unicode=";" glyph-name="semicolon" horiz-adv-x="255" d="M129 22Q100 -7 73 -7Q61 -7 54 0T46 16Q46 44 69 65Q94 90 119 90T153 76T162 47T148 -2T94 -70T10 -108Q4 -108 4 -104Q6 -102 8 -101Q51 -97 87 -60T129 22Z" />
<glyph unicode="&lt;" glyph-name="less" horiz-adv-x="296" d="M119 150Q86 179 59 179T31 181Q31 186 70 208Q136 248 194 294T267 372Q272 384 285 384T299 382T298 378Q267 311 116 218Q142 207 167 177T202 108Q204 99 204 90Q204 62 183 38T159 14Q153 14
161 27Q168 42 168 57Q168 107 119 150Z" />
<glyph unicode="=" glyph-name="equal" horiz-adv-x="438" d="M350 206Q276 204 200 190T95 172Q88 171 88 184T91 211T103 226Q165 232 226 232T348 225Q360 223 360 215T350 206ZM325 109T325 101T314 92Q240 90 164 76Q66 58 59 58T51 71T55 97T67 112Q128
118 189 118T313 111Q325 109 325 101Z" />
<glyph unicode="&gt;" glyph-name="greater" horiz-adv-x="294" d="M199 241Q232 212 259 212T286 210Q286 205 278 200T227 169T125 96T51 19Q46 8 27 7Q18 8 19 13Q52 79 202 172Q177 183 152 213T116 282Q114 292 114 301Q114 330 135 353T159 377Q165 377
157 364Q150 349 150 334Q150 284 199 241Z" />
<glyph unicode="?" glyph-name="question" horiz-adv-x="559" d="M577 578Q586 552 586 535Q586 485 553 448T485 386T405 334T323 287Q192 214 192 179Q192 171 196 167T200 157T195 151T185 152Q173 163 173 177Q173 218 271 285Q346 339 454 421Q526 488 526
531Q526 553 506 569Q475 593 412 593Q326 593 259 566T150 513T80 464Q30 417 58 401Q64 398 75 398Q117 398 186 429T308 495T376 556Q376 557 377 560T382 559T386 545T373 518Q307 421 224 385Q149 351 94 351Q48 351 32 378Q26 388 26 398T31 426T67 474T146
534T243 582Q388 639 467 639Q551 639 577 578ZM167 67Q167 38 147 16T98 -7Q90 -7 80 1T70 28T90 69T140 91Q149 91 158 84T167 67Z" />
<glyph unicode="@" glyph-name="at" horiz-adv-x="606" d="M385 315Q359 272 352 254T344 220T357 203T395 217Q438 245 469 286T501 364Q501 424 434 460Q377 490 302 490Q225 490 164 455T68 369T34 269T60 177T134 116T216 97Q396 97 508 231Q582 321 582 404Q582
454 548 469Q540 472 544 475T553 477Q598 457 598 398Q598 381 595 362Q578 265 494 174Q370 41 212 41Q159 41 111 59T36 115Q0 165 0 233Q0 322 62 398Q100 445 155 475Q240 521 340 521T498 475Q535 445 535 400Q535 373 520 335T455 250T381 190T339 178T303
193T285 237Q285 246 290 267Q266 225 234 202Q199 178 174 178Q130 178 112 226Q107 238 107 251Q107 294 135 335Q164 376 216 393Q239 400 263 400T312 388T350 356Q366 356 378 348T390 331T385 315ZM209 198T232 218T266 253T282 275T294 289T306 306Q327
338 327 355Q327 365 318 370T295 376T264 367Q232 351 210 316Q173 255 173 227T191 198Z" />
<glyph unicode="A" glyph-name="A" horiz-adv-x="1030" d="M978 -89Q980 -90 980 -93Q978 -100 972 -96Q885 -35 885 83Q885 132 904 187T974 321T1071 456T1161 562T1207 616Q1219 634 1223 612Q1224 605 1224 596T1219 580Q1157 504 1099 408Q1002 246 960 113Q944
60 944 3T978 -89ZM146 261Q310 329 541 329Q655 329 769 293Q796 321 849 376T933 464Q1023 557 1080 601Q1176 676 1256 676Q1292 676 1322 665T1358 647T1364 639T1362 636T1356 638Q1337 656 1282 656Q1189 656 1086 575Q1012 515 963 466T861 361T788 286Q888
249 897 189Q898 183 897 181T893 181T889 187Q881 206 833 217Q790 227 734 232Q531 36 375 -17Q290 -47 214 -47Q78 -47 26 -7T-27 83Q-27 102 -20 122Q10 204 146 261ZM647 236Q514 236 367 208Q141 168 73 89Q52 64 52 42Q52 16 80 -5Q113 -30 194 -30T371
-3Q513 41 709 234Q678 236 647 236Z" />
<glyph unicode="B" glyph-name="B" horiz-adv-x="643" d="M366 344Q403 348 444 348T536 337T616 296Q647 264 647 224T625 143T558 62Q426 -58 222 -58Q167 -58 125 -47T69 -27T38 -3T29 12Q34 12 59 3T151 -6T296 9T428 56T515 126Q554 173 554 221Q554 247
540 274T484 315T409 330T334 326T225 299T137 244T99 185T67 126T42 79Q36 65 28 65T19 72Q19 105 96 224T245 436T328 529Q334 529 338 524T341 512Q216 355 191 323Q557 384 636 498Q648 517 648 534T632 566Q600 595 513 595T283 555T84 466Q67 453 72 445T74
435T66 438Q45 450 39 468T33 495T38 509Q81 571 237 619T477 668Q643 668 686 611Q703 589 703 564Q703 525 659 483Q557 388 366 344Z" />
<glyph unicode="C" glyph-name="C" horiz-adv-x="719" d="M346 325L371 321Q419 321 513 363T687 469T766 580Q766 611 736 623T669 635Q552 635 417 568T184 410Q52 287 52 176Q52 128 76 92T140 36Q215 -1 308 -1Q350 -1 411 8Q517 27 592 58T744 151Q748 153
749 153Q754 153 754 149T750 138Q675 57 541 6T290 -46Q140 -46 65 42Q24 91 24 160Q24 294 169 425Q278 523 431 594T716 665Q797 665 842 626Q868 602 868 567Q868 518 819 469T700 384T561 326T464 300T422 297T392 298Q340 303 340 320Q340 325 346 325Z"
/>
<glyph unicode="D" glyph-name="D" horiz-adv-x="843" d="M863 472Q807 553 650 576Q605 583 562 583Q403 583 250 526Q134 483 74 426Q35 391 35 360Q35 341 45 328T50 312T40 314Q15 343 15 387Q15 459 72 505Q150 567 289 608T552 650T754 616Q910 550 910
389Q910 258 795 138Q659 -3 404 -46Q327 -59 264 -59Q45 -59 -1 31Q-6 41 -6 43Q-6 51 10 39Q70 -3 206 -3T485 37T731 156Q808 214 848 273Q890 335 890 383T863 472ZM452 550H465Q472 550 472 547Q472 540 464 532Q379 438 282 297T157 83Q154 75 150 75Q141
75 141 85Q141 139 287 344T452 550Z" />
<glyph unicode="E" glyph-name="E" horiz-adv-x="834" d="M813 528Q813 574 730 574Q627 574 450 501T173 335Q112 278 79 225T46 131T68 60Q106 2 239 -9Q254 -10 286 -10T375 1Q523 28 665 104T874 277Q887 296 887 287Q887 283 885 275Q858 199 702 97Q473
-53 260 -53Q136 -53 64 20Q16 67 16 146Q16 214 51 278Q136 438 346 561Q470 634 569 658Q632 670 689 670T788 644Q832 615 832 562Q832 528 812 487Q806 475 804 481T807 499T813 528ZM567 303Q573 296 573 292T572 284Q566 276 551 286Q517 311 442 311Q349
311 258 286Q219 275 204 275Q181 275 174 296Q173 297 173 299Q173 310 192 325T264 350Q297 358 339 358T430 352Q534 339 567 303Z" />
<glyph unicode="F" glyph-name="F" horiz-adv-x="665" d="M620 340Q693 442 693 500Q693 541 654 564Q625 581 577 581Q489 581 393 560Q212 521 101 470Q19 433 19 401Q19 384 41 369Q47 364 39 364T27 367Q-3 387 -3 419T15 482T76 537Q172 592 306 626Q450
663 575 663Q707 663 745 614Q770 583 770 553T758 492Q736 431 687 372L650 328Q665 320 677 308Q687 296 682 289T664 289T631 305Q493 140 475 116T446 77T432 57T419 39T407 18T398 -2Q390 -21 390 -49T414 -78Q421 -78 430 -76T439 -78T428 -86T403 -90T376
-78T362 -41T380 17T435 100T526 219T599 312Q574 315 528 315T400 298Q388 296 369 291T340 283Q303 275 297 284Q283 292 283 303T302 329T363 353T450 361Q551 361 620 340Z" />
<glyph unicode="G" glyph-name="G" horiz-adv-x="912" d="M804 519Q804 566 721 566Q618 566 441 492T164 326Q103 269 70 216T37 123T59 51Q97 -7 230 -18Q245 -19 277 -19T366 -8Q501 16 633 82T840 236Q846 256 849 274T835 291Q820 289 803 275T783 270T793
290Q827 314 855 314T897 299T910 260Q910 209 852 108Q767 -37 704 -104T566 -210T415 -248T285 -213T221 -103Q220 -95 224 -95T231 -102Q241 -159 285 -195T387 -231Q486 -231 606 -107Q755 48 821 190Q748 116 624 47Q427 -62 251 -62Q128 -62 54 11Q7 58 7
138Q7 206 42 270Q127 430 336 552Q460 625 560 649Q623 662 680 662T779 635Q823 606 823 553Q823 519 803 478Q797 466 795 472T798 491T804 519Z" />
<glyph unicode="H" glyph-name="H" horiz-adv-x="812" d="M1046 656Q1056 656 1056 651Q1056 644 1045 629Q939 490 817 291T647 -19Q639 -36 634 -27Q633 -24 633 -16Q633 25 741 208T938 523T1038 655L1046 656ZM646 563Q655 563 655 558Q655 551 644 536Q563
428 471 287Q518 284 564 275Q714 244 714 179Q714 175 712 175T708 180Q698 205 598 214Q568 217 525 217T422 211Q274 -24 225 -140Q220 -151 216 -151T211 -141Q211 -91 394 209Q336 201 309 196Q133 165 77 100Q60 79 60 61T80 27Q86 23 78 23L69 26Q26 59
26 103Q26 146 67 187Q127 247 272 273Q359 288 435 288Q439 288 444 288Q620 562 637 562L646 563Z" />
<glyph unicode="I" glyph-name="I" horiz-adv-x="595" d="M752 521Q752 552 704 564T587 576T405 556Q214 521 137 464Q104 440 104 417T136 372Q143 368 136 368T123 371Q98 388 87 419Q82 433 82 450Q82 511 143 545Q220 590 335 616T552 643Q620 643 688 618Q724
604 742 579T760 526Q760 503 755 503T750 510T752 521ZM646 563Q655 563 655 558Q655 551 644 536Q496 341 341 79Q406 72 455 56T535 7T565 -67Q565 -94 557 -93Q552 -93 553 -86T555 -76Q555 -53 520 -34Q457 0 336 0Q316 0 295 -1Q244 -92 225 -140Q220 -151
216 -151T211 -140Q211 -114 270 -2Q202 -8 132 -36Q103 -47 85 -54T44 -66T15 -62Q7 -56 7 -45T11 -20T30 10Q60 47 150 70Q199 83 245 83T317 81Q408 235 516 398T637 562L646 563Z" />
<glyph unicode="J" glyph-name="J" horiz-adv-x="675" d="M754 468T700 357T551 124T333 -111Q103 -321 -56 -321Q-136 -321 -166 -256Q-174 -236 -174 -214Q-174 -143 -125 -66Q-31 79 150 183Q167 314 269 446T498 642Q555 671 609 671T703 642Q754 604 754
536ZM225 51Q188 51 167 76Q-68 -84 -101 -196Q-105 -212 -105 -226Q-105 -263 -60 -278Q-43 -283 -27 -283Q24 -283 73 -262Q201 -209 352 -57T596 256T690 510Q690 587 641 612Q622 622 591 622T514 608Q380 562 294 453T190 204Q292 254 381 254Q465 254 476
208Q479 197 478 195T472 195Q464 199 445 199Q358 199 193 93Q205 64 228 62Q235 61 235 56T225 51Z" />
<glyph unicode="K" glyph-name="K" horiz-adv-x="667" d="M861 663Q872 663 872 656Q872 644 856 638Q616 555 242 269Q339 301 414 301T548 275Q651 231 651 136Q651 63 574 -7Q527 -50 456 -84Q434 -95 429 -95T425 -93Q427 -84 466 -49T529 32T553 118T533
196Q495 266 376 274Q369 274 361 274Q310 274 258 258T194 241T183 245T194 259Q293 350 526 501T856 663Q859 663 861 663ZM369 606Q402 606 402 588Q402 579 391 565Q292 435 159 226T-16 -81Q-21 -93 -25 -93T-29 -83Q-29 -31 131 262T343 597Q354 606 369
606Z" />
<glyph unicode="L" glyph-name="L" horiz-adv-x="736" d="M966 569Q966 480 830 400Q778 369 711 345Q554 288 417 288Q364 288 335 293Q329 285 312 259T289 223T269 193T247 162Q223 132 201 110Q166 76 108 76Q96 76 81 80T64 89T62 95T66 94T81 92T110 94Q151
99 198 144Q225 171 313 296Q229 313 214 360Q212 367 215 367T220 363Q232 345 294 345Q317 345 346 347H349Q410 432 473 497T606 602Q719 665 828 665Q880 665 910 649Q966 620 966 569ZM732 -48Q732 -75 723 -75Q715 -75 717 -68T720 -57Q720 -31 666 -12Q580
19 435 19Q281 19 166 -16Q128 -28 104 -36Q62 -49 40 -49Q3 -49 3 -23Q3 26 90 62Q185 100 341 100Q580 100 680 36Q732 2 732 -48ZM883 564Q894 583 894 603Q894 648 790 648Q772 648 722 635T622 597Q503 534 374 350Q503 366 656 422Q838 488 883 564Z" />
<glyph unicode="M" glyph-name="M" horiz-adv-x="1324" d="M355 -20Q351 -20 351 -12Q351 2 407 72Q415 82 472 151T551 248Q633 354 660 409T688 500Q688 582 552 582Q408 582 178 504Q17 449 17 402Q17 385 40 369Q47 365 40 365T27 367Q-3 387 -3 419T15 482T76
537Q172 592 306 626Q450 663 575 663Q707 663 745 614Q770 583 770 553T758 492Q736 431 687 372Q677 359 620 292T530 184Q891 564 1038 564Q1080 564 1098 528Q1108 508 1108 493T1106 459Q1103 409 1022 272Q1144 399 1240 470Q1356 556 1438 556Q1485 556
1485 517T1435 403Q1140 -30 1140 -173Q1140 -218 1166 -222Q1182 -225 1200 -212Q1207 -207 1212 -213T1208 -228T1187 -237T1159 -235T1117 -223T1074 -188T1056 -133Q1056 -90 1067 -56Q1094 23 1320 338Q1388 433 1388 474Q1388 505 1356 505Q1313 505 1255
461Q1131 367 978 199Q936 131 874 40Q865 27 853 27Q813 27 813 45Q813 49 815 53Q981 341 1001 422Q1007 450 1007 465T1006 490Q999 519 970 519T891 486Q805 431 678 309T434 56Q431 53 427 53Q369 -20 355 -20Z" />
<glyph unicode="N" glyph-name="N" horiz-adv-x="585" d="M-63 -140Q-68 -151 -72 -151T-76 -141Q-76 -83 100 197T336 549Q362 631 395 656Q402 661 416 661T463 648T496 617Q496 609 488 603Q443 565 418 460T393 246Q393 116 423 43Q464 149 610 395T774 642Q775
642 783 643Q814 647 814 638Q814 634 807 622Q705 489 595 312T433 21Q453 -12 480 -25Q492 -31 503 -31T520 -28T528 -25T530 -30T528 -35Q505 -52 486 -52Q426 -52 384 5T321 149T300 312Q300 398 319 484Q212 339 96 150T-63 -140Z" />
<glyph unicode="O" glyph-name="O" horiz-adv-x="701" d="M808 423T768 338T657 163Q569 52 451 -12Q389 -45 323 -45Q234 -45 181 18Q136 71 136 143Q136 243 209 361Q263 447 341 514T483 603Q524 615 561 615T625 590Q655 563 655 510Q655 479 644 446Q641
434 637 442Q635 446 638 457T641 482Q641 526 589 526Q514 526 403 454T235 305Q158 199 158 114Q158 21 262 4Q277 1 293 1Q348 1 426 29Q566 79 654 187Q769 330 769 507Q769 573 755 604T727 642T704 646T695 648Q696 658 720 658T768 638Q808 606 808 515Z"
/>
<glyph unicode="P" glyph-name="P" horiz-adv-x="539" d="M-16 -24Q-16 13 92 180Q52 190 26 210Q-4 234 -4 260T9 298T23 303Q23 299 17 291T11 274Q11 242 37 222T102 195Q180 311 259 413T351 516Q357 516 361 509T366 495Q240 339 137 190Q147 189 158 189Q247
189 369 229T554 312T647 398T677 479T654 545T589 584T516 595Q408 595 271 551T84 466Q67 453 72 445T74 435T66 438Q45 450 39 468T33 495T38 509Q75 562 210 607T480 665Q503 667 537 667T618 654T692 610Q726 572 726 517Q726 442 660 367Q622 324 568 292Q484
244 367 208T166 172Q145 172 125 174Q36 46 12 -17Q6 -33 -5 -33T-16 -24Z" />
<glyph unicode="Q" glyph-name="Q" horiz-adv-x="636" d="M647 -214Q647 -187 590 -168Q506 -140 372 -140Q250 -140 160 -159Q127 -166 69 -184Q-10 -208 -31 -208Q-66 -208 -66 -186Q-66 -142 8 -107Q42 -91 89 -79Q27 -57 27 34Q27 39 27 45Q36 210 164 382T455
637Q521 670 584 670Q645 670 696 634Q753 593 753 498Q753 396 656 264Q591 175 496 97T343 2T246 -16T181 9T155 79Q155 119 176 167Q180 176 183 173T181 154T175 121Q175 83 225 83Q306 83 438 161T635 319Q735 439 735 525Q735 604 640 620Q627 623 611 623Q556
623 475 595Q297 536 190 386T74 48Q74 38 74 29Q74 -18 88 -43T125 -71L133 -70Q202 -57 271 -57T407 -64Q577 -80 636 -138Q661 -164 661 -197Q661 -209 658 -221T649 -233Q643 -232 645 -226T647 -214Z" />
<glyph unicode="R" glyph-name="R" horiz-adv-x="587" d="M-15 -37Q-15 11 129 221Q124 239 124 254T149 289T187 309Q189 309 190 309Q249 390 295 446T349 502T361 496T366 482Q286 383 202 268L204 261L240 264Q316 269 405 298T551 366Q669 446 669 513Q669
542 630 562T508 582T283 542T84 453Q68 439 72 431T74 422T65 425Q44 437 39 455T33 482T38 495Q71 543 185 585T397 641T540 655T617 649T672 622Q709 591 709 535Q709 480 668 433T563 349T406 281Q299 246 209 246Q241 166 337 85T497 3Q522 3 541 15T563 45Q563
50 568 48Q570 45 570 43Q562 -24 456 -24Q395 -24 329 8T217 88T143 187Q37 33 12 -30Q6 -46 -4 -46T-15 -37Z" />
<glyph unicode="S" glyph-name="S" horiz-adv-x="590" d="M766 576Q758 589 738 589T701 584T659 570Q620 554 596 540Q506 492 428 428T346 331Q344 306 373 290Q398 275 431 262T479 241Q559 201 559 135Q559 106 542 79Q515 37 461 10T344 -29Q280 -40 238
-40Q162 -40 86 -8T-8 94Q29 61 94 47T218 33Q306 34 348 47T422 77T480 118T507 170T469 222Q466 224 409 247T321 298T290 362Q290 430 374 500T557 610T727 649Q776 649 803 632T830 583Q830 579 830 574Q827 543 721 445Q682 409 653 365T623 286Q623 283 623
280Q592 304 592 344Q592 380 623 432Q668 508 766 576Z" />
<glyph unicode="T" glyph-name="T" horiz-adv-x="433" d="M860 507Q860 554 750 572Q686 582 604 582T422 572Q176 547 62 500Q-29 464 14 421Q19 416 12 416T0 421Q-17 438 -17 460T-8 503T27 546T87 582Q194 624 336 642Q419 652 482 652Q663 652 782 606Q860
575 880 540Q891 522 891 504T880 467Q867 449 852 446T838 451Q840 460 850 476T860 507ZM272 51Q265 6 265 -11Q265 -67 300 -76Q305 -78 311 -78L338 -67Q346 -60 346 -65T340 -74Q324 -88 298 -88Q293 -88 288 -88Q199 -81 199 14Q199 66 222 132T290 266T486
547Q498 563 504 563T514 560T517 554T516 549Q303 232 272 51Z" />
<glyph unicode="U" glyph-name="U" horiz-adv-x="674" d="M821 573Q842 573 842 564Q842 561 839 558Q747 469 604 192Q516 23 516 -51Q516 -98 552 -107Q556 -108 564 -108T580 -101T589 -97T585 -105Q562 -125 538 -125Q452 -125 452 -49Q452 18 520 146Q418
13 332 -29Q303 -43 277 -43T228 -22Q194 7 194 53Q194 112 241 215T332 404Q387 515 387 564Q387 626 314 626Q229 626 103 558Q65 538 50 526T28 514Q17 514 11 529T4 559T11 585T25 602Q72 640 191 660Q251 671 313 671T421 645T468 568Q468 556 465 542Q455
493 360 320T246 88Q235 56 235 33T245 -6T278 -21Q347 -21 458 102Q524 177 570 245T677 410T761 539T821 573Z" />
<glyph unicode="V" glyph-name="V" horiz-adv-x="484" d="M321 63Q710 653 918 653Q950 653 962 636Q964 633 964 631T960 627T950 627T942 628Q884 628 798 567T627 412T458 211Q297 5 243 -95Q239 -102 236 -102T228 -100T227 -89Q273 -12 277 -6Q216 -34 193
-34Q190 -34 189 -32Q283 315 283 474Q283 517 273 556T243 612T202 628Q168 628 133 588T65 472T31 312Q31 299 32 286T27 273Q25 274 23 279Q10 304 10 337Q10 451 41 510T118 605Q183 657 239 657Q271 657 301 638Q377 589 377 411Q377 269 321 63Z" />
<glyph unicode="W" glyph-name="W" horiz-adv-x="814" d="M698 554Q756 554 756 447T686 142Q931 528 1093 626Q1157 664 1212 664Q1241 664 1253 647Q1254 645 1254 644Q1254 639 1245 639T1232 639Q1186 639 1121 596T993 488T856 328Q741 181 636 22Q630 10
577 -7T520 -25T515 -24T532 15T562 86T595 170Q638 282 655 353T672 449Q672 492 644 492Q587 492 460 349Q380 260 312 156Q268 51 220 -28Q213 -39 158 -57T97 -75T92 -73Q211 162 247 257T299 407T315 505T296 574T252 599T200 582Q142 549 86 452T23 259Q22
247 19 246Q15 245 13 251Q8 266 8 292T22 380T66 486T138 563Q215 623 300 623Q346 623 373 591Q402 557 402 493Q402 401 358 268Q402 333 460 394T586 504T698 554Z" />
<glyph unicode="X" glyph-name="X" horiz-adv-x="500" d="M131 237Q94 336 94 427T115 551Q126 572 173 584Q190 589 201 589T213 580Q213 575 209 568Q183 528 183 451T197 306Q554 664 788 664Q799 664 799 660T796 656T791 656Q671 656 433 465Q323 378 206
266Q231 170 271 93T350 -5Q371 -17 385 -17Q429 -17 446 3Q448 5 450 5T454 3T453 -3Q431 -31 373 -31T252 36T144 205Q-43 21 -123 -89Q-132 -102 -137 -102T-143 -97T-135 -81Q-17 78 131 237Z" />
<glyph unicode="Y" glyph-name="Y" horiz-adv-x="912" d="M558 439T543 412T468 284T377 120T346 25T371 -6Q399 -6 457 43T564 150T634 238Q796 473 834 600Q841 623 849 625Q858 633 863 619Q883 564 883 483T856 290Q769 -75 534 -242Q436 -313 334 -313T161
-249T75 -47Q74 -37 77 -34T84 -33T89 -45Q103 -149 161 -215T296 -281Q381 -281 467 -198Q521 -146 556 -97Q599 -38 644 30Q847 339 847 554Q847 564 847 574Q823 493 766 391Q685 248 585 140Q429 -28 354 -28Q316 -28 316 12Q316 39 335 88T376 180Q418 261
469 347T531 469T542 525Q542 598 435 598T148 538Q24 495 24 459Q24 446 42 433Q47 430 41 430T31 432Q9 447 9 472Q9 528 70 564Q143 606 247 632Q359 661 450 661Q592 661 600 585Q600 577 600 565T595 531T574 474Z" />
<glyph unicode="Z" glyph-name="Z" horiz-adv-x="743" d="M721 -23Q721 34 524 34Q372 34 119 -3Q71 -11 54 -14T33 -17Q13 -17 -2 6Q-9 16 -9 28T7 52Q43 76 72 89L75 91Q219 235 408 374T735 557Q697 591 573 591Q380 591 261 537Q194 507 194 472Q194 454 211
435Q215 431 210 431T199 435Q178 455 178 479T196 533Q265 641 488 656Q517 657 564 657T661 648Q773 626 773 562Q773 558 773 555Q777 551 777 547T771 539Q770 529 766 517T759 504T756 504T758 514T760 532L757 530Q585 452 417 334T121 103Q182 122 310 122Q591
122 692 53Q733 25 733 -12Q733 -27 728 -40T717 -54Q710 -54 715 -44T721 -23Z" />
<glyph unicode="[" glyph-name="bracketleft" horiz-adv-x="399" d="M238 -79L114 -82Q78 -82 43 -74T1 -47Q0 -46 0 -43Q0 -24 42 63T162 274Q259 431 348 526Q363 542 392 563T442 587T497 590T603 584Q612 583 612 576Q612 564 599 563Q508 563 452 556Q414
553 369 495Q276 373 196 212T116 -12Q116 -25 119 -35Q128 -45 158 -51T242 -58Q249 -59 250 -64T249 -74T238 -79Z" />
<glyph unicode="\" glyph-name="backslash" horiz-adv-x="545" d="M32 589L68 584Q79 584 176 445T376 138Q505 -71 505 -112Q505 -123 500 -126T492 -129Q485 -129 480 -118Q437 -17 295 193T25 570Q19 578 19 583T32 589Z" />
<glyph unicode="]" glyph-name="bracketright" horiz-adv-x="399" d="M323 588L427 592Q548 592 560 557Q561 556 561 553Q561 534 519 447T400 235T246 20T115 -79Q98 -81 63 -81T-41 -75Q-50 -74 -50 -67Q-50 -55 -37 -54Q41 -54 110 -47Q148 -42 193 15Q285
135 365 297T446 524Q446 536 443 545Q434 555 403 560T319 567Q309 569 311 578T323 588Z" />
<glyph unicode="^" glyph-name="asciicircum" horiz-adv-x="333" d="M301 341Q304 341 312 342T321 338T300 326T252 320T203 336Q166 361 165 399Q126 367 84 349T14 331Q2 331 2 334T6 345T14 352T20 351Q46 351 90 375T175 432Q185 449 212 471T242 494Q246
494 238 479T230 446Q230 394 259 362Q279 341 301 341Z" />
<glyph unicode="_" glyph-name="underscore" horiz-adv-x="556" d="M556 -125H0V-75H556V-125Z" />
<glyph unicode="`" glyph-name="grave" horiz-adv-x="306" d="M239 348T239 344T230 339Q176 339 122 363T52 405T35 430T39 443T64 454T90 460T92 456T90 447Q90 427 135 392T226 350Q239 348 239 344Z" />
<glyph unicode="a" glyph-name="a" horiz-adv-x="482" d="M356 141T345 126T316 85T298 41T313 23T364 42Q434 82 519 162Q529 172 532 165Q532 164 532 161T528 154Q356 -8 278 -8Q255 -8 240 7T224 44Q224 65 242 108Q197 52 146 22T65 -9T16 8T-5 52Q-5 126
61 197Q111 250 185 272Q218 283 249 283T310 266T348 224Q378 224 391 202Q393 199 393 192T386 176T367 154ZM294 253Q273 253 244 240Q193 218 147 164Q74 78 74 38Q74 17 91 17Q105 17 137 35T223 106Q226 109 246 128T280 161Q327 210 327 231T294 253Z" />
<glyph unicode="b" glyph-name="b" horiz-adv-x="400" d="M392 232Q392 162 322 80Q270 19 208 -10Q175 -25 151 -25T106 -12T86 30T94 85Q59 32 39 10T1 -12Q-1 -12 -4 -12Q-30 -12 -54 9Q11 100 47 157Q24 134 -10 106Q-19 99 -22 103T-15 118Q15 143 27 154Q66
192 121 278Q274 515 274 572Q274 592 254 593Q252 593 252 595T254 597Q300 595 307 536Q307 532 307 527Q307 449 177 221Q227 271 278 291Q303 301 324 301T365 291Q392 269 392 232ZM254 239Q238 239 214 226Q171 203 138 152Q99 93 99 39Q99 3 119 -8Q130
-15 146 -15T188 -2Q230 19 264 71Q302 130 302 184T254 239Z" />
<glyph unicode="c" glyph-name="c" horiz-adv-x="342" d="M290 237Q290 256 270 256Q253 256 218 241T138 174Q85 111 85 62Q85 25 113 12Q122 8 134 8Q175 8 230 43T374 159Q388 173 388 159Q388 153 382 148Q260 36 203 10T112 -17Q-4 -17 -4 68T72 214T232
276Q284 276 302 252Q313 240 313 227T306 199T284 184T279 203T290 237Z" />
<glyph unicode="d" glyph-name="d" horiz-adv-x="394" d="M290 46Q271 -6 271 -39T285 -89Q288 -93 286 -94T283 -96T280 -95Q248 -69 248 -18T269 101Q228 48 188 14Q140 -26 90 -26Q58 -26 30 -5T2 66Q1 90 11 121Q-9 103 -14 99T-22 99T-24 106T-18 115T52
189Q89 230 140 253T237 276Q279 276 298 262T318 225Q354 301 395 369T460 464Q485 492 523 492T585 471Q564 458 503 385T384 229T290 46ZM298 235Q298 255 273 255Q260 255 239 247Q192 229 146 177Q89 112 89 53Q89 18 112 11Q117 9 122 9Q163 9 244 91Q266
112 281 136Q289 159 302 189Q293 183 288 187T290 207T298 235Z" />
<glyph unicode="e" glyph-name="e" horiz-adv-x="342" d="M233 156Q286 185 286 215T250 245Q233 245 214 236Q172 217 133 170Q85 112 85 62Q85 43 95 27T133 10Q180 10 252 59T376 159Q388 171 388 160Q388 153 382 148Q345 114 333 103T283 62T223 20Q152 -17
103 -17T25 5T-4 68Q-4 153 72 214T231 276Q287 276 306 252Q314 240 314 227T305 197Q287 166 238 143T144 119Q127 119 126 122T128 126T139 128Q179 128 233 156Z" />
<glyph unicode="f" glyph-name="f" horiz-adv-x="251" d="M469 410Q469 406 466 406T461 411Q455 434 438 446T409 459T386 460Q350 460 319 440Q260 402 182 296Q237 291 256 276Q293 248 286 235Q284 230 268 239T219 249T142 237Q73 136 40 30Q26 -16 26 -46T39
-91Q43 -95 40 -96T36 -97T34 -96Q-3 -66 -3 -1T58 205Q53 203 51 205T45 214T39 231T39 252T54 274Q68 286 101 293Q175 430 244 477Q290 508 339 508T423 484Q469 452 469 410Z" />
<glyph unicode="g" glyph-name="g" horiz-adv-x="411" d="M-93 -274Q-180 -274 -237 -236T-295 -128Q-295 -124 -292 -124Q-285 -124 -283 -132Q-274 -183 -234 -220Q-216 -237 -185 -248T-132 -259T-105 -259Q6 -253 89 -147Q128 -97 158 -48T223 63T282 156Q251
121 204 76T123 11T60 -9T11 8T-10 52Q-10 126 56 197Q106 250 180 272Q213 283 244 283T305 266T343 224Q359 224 378 211T397 191T389 181Q357 165 288 41Q221 -78 131 -172Q86 -219 27 -246T-93 -274ZM62 40Q62 17 86 17Q105 17 133 38Q201 83 275 169Q309 208
309 230Q309 238 304 244T280 251T223 230T142 167T81 91T62 40Z" />
<glyph unicode="h" glyph-name="h" horiz-adv-x="401" d="M275 244Q275 257 256 257Q222 257 173 209Q161 197 130 159T68 72L43 17L46 27Q44 23 42 15V15Q37 3 13 -5Q8 -7 4 -7Q-6 -7 2 8Q6 18 30 79T69 178Q30 135 -4 108Q-14 100 -18 106Q-19 107 -19 110T-10
121Q51 174 86 219Q112 280 181 388T324 568Q373 617 430 634Q456 642 478 642T520 630T540 583Q540 538 510 492T404 390T263 305Q251 300 249 306T259 318Q317 344 389 400T486 495T511 559T490 584Q466 584 414 544Q337 482 253 371T107 147Q135 187 158 213Q214
276 267 276Q317 276 326 232Q327 226 327 215T320 183T278 104T243 34T251 22Q262 22 284 36Q340 71 430 154Q442 166 442 158T435 143Q361 67 282 16Q245 -8 215 -8Q207 -8 200 -6Q161 2 161 37T189 117Q194 124 226 164Q275 224 275 244Z" />
<glyph unicode="i" glyph-name="i" horiz-adv-x="272" d="M191 314T193 331T211 367T254 386Q262 386 271 379T278 354T262 321T231 301T202 305ZM189 252Q148 210 121 146T93 55T113 29T181 59T290 144Q303 156 303 141Q303 139 301 137Q253 95 220 68T142 17T67
-8Q31 -8 14 8T-4 43Q-4 79 9 100T53 158Q42 149 19 128T-14 100T-23 104Q-23 111 -7 124T62 190T135 253T167 263T186 260T189 252Z" />
<glyph unicode="j" glyph-name="j" horiz-adv-x="158" d="M107 314T109 331T127 367T170 386Q178 386 186 379T194 364T193 346T178 321T147 301T118 305ZM117 210Q117 153 58 35T-54 -139T-188 -236T-344 -276T-472 -241Q-535 -198 -535 -130Q-535 -125 -531
-125T-525 -132Q-515 -188 -472 -223T-367 -258T-213 -188T-51 -18Q23 81 63 171Q46 149 10 120Q8 118 5 120Q-2 125 3 132Q73 188 81 236Q81 252 69 256Q64 259 68 263Q72 266 78 266Q106 266 115 231Q117 222 117 210Z" />
<glyph unicode="k" glyph-name="k" horiz-adv-x="333" d="M53 91Q26 25 26 -20T39 -80Q42 -84 40 -85T37 -87T34 -86Q2 -59 -2 -27Q-4 -16 -4 -3Q-4 55 30 140Q-20 90 -22 102Q-21 111 -8 122T51 190Q151 412 313 561Q397 639 465 639Q521 639 530 593Q532 586
532 578Q532 493 362 378Q303 338 254 317Q242 312 240 318T250 330Q296 351 355 393T461 484T508 561Q508 578 489 578T434 556Q334 495 215 342Q141 247 93 168Q163 261 237 291Q265 301 284 301T317 295Q344 283 344 255Q344 205 285 161Q251 137 208 127T142
116T105 122Q137 81 188 51T272 21Q293 21 305 31T317 47T319 54T322 52Q322 17 269 4Q247 -1 214 -1T138 20Q74 50 53 91ZM274 225Q274 260 241 260Q203 260 157 218T88 149Q90 144 96 134Q108 127 123 127T174 136T241 170T274 225Z" />
<glyph unicode="l" glyph-name="l" horiz-adv-x="294" d="M75 41Q75 14 102 14Q118 14 152 27T242 84T316 147T339 167T342 161T337 151Q252 64 196 26T92 -12Q51 -12 35 7T19 51Q19 96 51 159Q-7 97 -7 119Q-7 123 -1 128Q46 166 100 238Q199 367 255 465Q265
484 265 493Q265 514 242 501Q216 488 214 491T217 499Q241 517 283 533T352 550Q394 550 394 524Q394 509 380 484T297 385T213 291Q110 156 82 76Q75 55 75 41Z" />
<glyph unicode="m" glyph-name="m" horiz-adv-x="518" d="M466 223Q466 186 403 101Q365 50 365 38T377 26T413 41Q470 80 527 135Q535 143 538 139T541 133T519 110T471 66T404 19T338 -6Q284 -6 284 42Q284 59 290 82Q303 121 403 233Q416 247 416 255T396 263T333
228Q318 216 296 193T245 117T201 25Q195 7 177 7Q173 7 167 8Q148 13 152 26Q230 165 245 200T260 250T248 265Q195 265 96 92Q60 36 38 12T-2 -12Q-4 -12 -6 -12Q-32 -12 -57 9Q-51 18 -28 48Q23 110 61 168Q18 125 -12 101Q-22 93 -23 100T-19 112T1 130T19
147T36 162T55 181Q83 214 96 237Q101 249 101 260T96 275T92 284Q92 292 100 292Q104 292 109 290Q140 276 140 229Q140 201 129 168Q149 199 172 229Q213 282 254 282Q282 282 282 250Q282 220 240 143Q282 197 305 222Q358 277 407 277Q459 277 466 232Q466
227 466 223Z" />
<glyph unicode="n" glyph-name="n" horiz-adv-x="394" d="M268 224Q282 240 282 249T264 258T205 223Q168 191 116 116T40 15T-2 -12Q-4 -12 -6 -12Q-32 -12 -57 9Q-51 18 -28 48Q23 110 61 168Q18 125 -12 101Q-22 93 -23 100T-19 112T1 130T19 147T36 162T55
181Q83 214 96 237Q101 249 101 260T96 275T92 284Q92 292 100 292Q104 292 109 290Q140 276 140 235T122 146Q161 197 181 219Q233 277 283 277Q332 277 341 235Q342 229 342 217T333 183T288 114T248 54T244 35T253 28Q265 26 294 44Q335 73 400 133Q411 144
411 131Q411 126 406 121Q309 31 262 9Q207 -19 176 0Q157 12 157 33T165 77Q183 128 268 224Z" />
<glyph unicode="o" glyph-name="o" horiz-adv-x="373" d="M176 17Q109 -17 59 -17Q17 -17 2 11Q-6 25 -6 43Q-6 84 13 123Q0 110 -12 102Q-22 93 -22 104Q-22 111 -5 126T49 176T106 230Q167 281 235 281Q260 281 286 268Q324 250 324 202Q324 144 266 83Q243
57 202 31Q284 44 376 130Q381 134 385 134T389 129T385 121Q275 17 180 17Q178 17 176 17ZM273 122Q298 160 298 186T275 227Q262 238 245 238Q184 238 133 190T64 88Q57 69 57 49T72 20T107 11T162 30Q160 30 156 32Q144 38 144 48Q144 83 183 119Q211 144 240
144T273 122Z" />
<glyph unicode="p" glyph-name="p" horiz-adv-x="373" d="M380 231Q380 161 312 83Q261 23 202 -4Q169 -20 147 -20T111 -10Q87 6 87 37T104 108Q-117 -208 -117 -270Q-117 -276 -115 -280T-116 -286L-119 -285Q-151 -257 -151 -219Q-151 -132 27 136Q-21 88 -21
102Q-21 110 -10 120Q39 162 96 235T169 324T210 341T258 316Q238 292 183 217Q231 262 280 280Q304 289 323 289T361 277T380 231ZM102 45Q102 0 137 0Q157 0 197 20T276 85T331 167T347 227Q347 268 315 268Q294 268 250 247T168 181Q102 105 102 45Z" />
<glyph unicode="q" glyph-name="q" horiz-adv-x="347" d="M240 -18Q107 -216 107 -277Q107 -295 124 -305Q128 -308 120 -311Q77 -304 68 -250Q67 -241 67 -226T74 -181T90 -130Q129 -44 207 78Q175 43 132 17T60 -9T11 8T-10 52Q-10 126 56 197Q106 250 180 272Q213
283 244 283T305 266T343 224Q350 224 351 221Q374 217 395 202Q336 126 240 -18ZM66 35Q66 14 86 14Q102 14 135 36T192 83T251 147T292 194Q315 217 315 229Q315 252 281 252Q262 252 235 240Q188 218 146 168Q66 74 66 35Z" />
<glyph unicode="r" glyph-name="r" horiz-adv-x="361" d="M275 200Q231 149 204 107T176 47T196 29T280 70T398 162Q403 167 407 166T411 161T407 152Q278 34 210 4Q180 -8 167 -8Q119 -8 102 8T84 43Q84 81 99 101Q148 170 177 218Q186 232 174 237T143 243T123
244Q56 154 -10 102Q-18 95 -19 102Q-19 110 -8 121Q62 181 107 248Q98 254 98 264T99 290T115 330Q139 372 165 372Q187 372 187 348Q187 315 156 276Q141 258 128 250Q165 262 236 262Q271 262 286 236Q288 232 288 224T275 200Z" />
<glyph unicode="s" glyph-name="s" horiz-adv-x="307" d="M-58 55Q-59 56 -59 58T-56 60T-51 56Q-33 16 8 16Q59 16 97 66Q125 103 146 143T182 208T227 262T283 299Q277 302 263 302T211 282T134 230T52 158T-1 111T-12 111T-7 124Q19 146 68 192T142 260T200
297T248 313Q288 313 297 299Q271 288 255 241T218 132T166 35Q192 45 246 81T343 161Q352 169 356 163Q356 161 356 159T337 137T291 95T222 42Q137 -18 52 -18T-58 55Z" />
<glyph unicode="t" glyph-name="t" horiz-adv-x="277" d="M201 376T214 395T236 424T272 439T326 446T352 441T309 394T209 285Q277 274 298 242Q306 228 301 224T288 227Q267 248 221 248Q201 248 176 244Q95 140 74 74Q67 55 67 42Q67 7 96 7Q127 7 183 50Q256
105 310 159Q320 170 323 164T318 151Q232 61 174 19T66 -24Q-1 -24 -1 47Q-1 81 18 128L0 111Q-8 103 -11 106T-15 113T-7 123Q66 187 93 220Q74 213 68 219T59 235T68 259T105 280T142 288Q157 310 179 343Z" />
<glyph unicode="u" glyph-name="u" horiz-adv-x="458" d="M214 139T197 116T165 72T150 41T160 30Q178 30 213 62L245 93Q294 146 331 195L368 240Q385 259 404 260Q433 260 458 238Q452 229 439 212T412 178T381 137T350 94T324 52T304 13Q289 -31 305 -42Q310
-47 303 -47Q301 -47 299 -46Q261 -33 261 16T293 132Q186 -6 119 -6Q68 -6 68 42Q68 59 75 82Q90 127 177 224Q188 237 188 246T176 255T140 237T73 179T21 130T11 134Q11 140 30 155T82 205T139 258T196 277Q232 277 245 250Q250 240 250 224T242 189T224 154Z"
/>
<glyph unicode="v" glyph-name="v" horiz-adv-x="306" d="M381 297Q382 295 382 293T379 292T374 295Q367 310 355 310Q319 310 226 162Q168 68 129 29Q109 9 82 1T43 -7T24 -4Q40 19 58 70T85 161T94 201L52 159Q20 126 -12 101Q-24 91 -24 102Q-24 108 -19 113T1
130T19 147T36 162T55 181Q83 214 96 237Q101 249 101 260T96 275T92 284Q93 296 109 290Q144 274 147 244Q150 229 150 203T140 120Q130 62 102 20Q147 49 205 164T297 312Q311 326 332 326Q369 326 381 297Z" />
<glyph unicode="w" glyph-name="w" horiz-adv-x="518" d="M452 139Q447 121 447 106T459 90T500 113T537 145T546 142Q546 137 543 134Q511 102 496 91Q468 69 448 69Q416 69 412 105Q316 -8 259 -8Q224 -8 208 7T191 39T196 80Q116 -8 65 -8Q30 -8 13 7T-4 42Q-4
79 9 100T53 158Q-10 105 -15 100T-22 102Q-22 111 -11 121Q13 139 64 191T135 253T167 263T186 260T189 252Q160 223 132 170Q94 96 94 52Q94 45 95 40Q101 21 134 43Q146 51 161 64T228 144T301 221T335 232T355 226T359 215Q308 161 290 76Q284 41 291 37T304
32T320 38Q360 60 410 123Q413 217 451 259Q467 279 513 279Q533 279 531 267L525 257Q464 182 452 139Z" />
<glyph unicode="x" glyph-name="x" horiz-adv-x="310" d="M-97 -103T-104 -103T-111 -100T-108 -93Q-19 26 83 127H82Q67 167 67 202Q67 245 83 268Q94 283 128 297T161 303Q160 301 159 299Q143 273 143 241T146 186Q319 339 433 339Q441 339 441 337T439 335T437
335Q369 335 229 225Q203 204 151 158Q162 108 182 67Q213 6 252 6Q273 6 282 18Q284 20 286 19T286 15Q271 -5 246 -5Q147 -5 93 104Q-31 -14 -91 -94Q-97 -103 -104 -103Z" />
<glyph unicode="y" glyph-name="y" horiz-adv-x="417" d="M176 224Q188 237 188 246T176 255T140 237T66 173T8 120T-2 119T10 136T68 193T138 258T195 277Q231 277 244 250Q250 240 250 224T242 189T224 154T197 116T165 72T149 40T157 30Q196 30 303 160Q354
221 390 274Q422 348 446 355Q455 358 468 358T487 347T493 330T485 321T470 317T461 318Q432 318 412 276Q400 250 382 193T347 88T294 -24T204 -144T79 -238T-70 -276T-197 -241T-261 -133Q-261 -128 -259 -126T-254 -126T-251 -132Q-241 -188 -198 -223T-97
-258Q-22 -258 56 -201T203 -50T365 224Q342 189 310 148Q185 -6 118 -6Q67 -6 67 42Q67 59 74 82Q88 122 176 224Z" />
<glyph unicode="z" glyph-name="z" horiz-adv-x="419" d="M174 140Q262 177 262 191T178 206Q71 206 58 167Q42 178 42 195Q42 199 43 203Q63 277 206 277Q211 277 217 277Q272 277 294 261T316 226Q316 194 270 164Q239 144 156 117Q176 119 211 119T289 102T346
48Q350 36 350 15T332 -41Q305 -93 232 -150T82 -241Q-71 -306 -189 -306Q-254 -306 -279 -277Q-287 -267 -287 -258T-282 -235T-256 -198Q-209 -148 -99 -106T100 -63Q164 -63 191 -80Q204 -89 204 -95T193 -99T155 -96T67 -109T-77 -153T-193 -232Q-204 -248
-204 -259Q-204 -287 -150 -287Q-65 -287 64 -230Q171 -185 238 -103Q282 -49 282 -10Q282 8 273 23Q248 65 154 65Q146 65 117 65T11 47Q-8 43 -7 56Q-5 73 17 88Q23 92 26 93T80 108T174 140Z" />
<glyph unicode="{" glyph-name="braceleft" horiz-adv-x="399" d="M594 600Q594 588 583 589Q543 595 509 595T448 587Q398 572 353 502Q273 376 120 347Q114 347 110 344Q123 339 129 337T148 329T169 319T187 309T202 296T212 282Q220 268 207 249Q163 186 142
83Q136 55 136 24T152 -22T184 -37Q225 -37 268 -24Q276 -22 276 -30T267 -41Q204 -57 163 -57T96 -46Q42 -22 42 40Q42 115 137 248Q147 266 147 277Q147 311 103 328Q82 336 89 349T126 367T193 408T283 526Q315 577 364 597T460 618Q490 618 586 608Q594 607
594 600Z" />
<glyph unicode="|" glyph-name="bar" horiz-adv-x="230" d="M148 665Q160 662 160 493T149 141T116 -110Q106 -141 88 -146Q86 -146 84 -146Q76 -146 76 -137Q76 -134 77 -132Q107 -9 107 321Q107 531 95 660Q93 679 107 679Q118 679 132 672T148 665Z" />
<glyph unicode="}" glyph-name="braceright" horiz-adv-x="425" d="M352 318Q342 300 342 289Q342 256 386 239Q406 230 400 218T373 201Q333 194 296 159T206 40Q155 -38 68 -46Q34 -50 16 -50Q-31 -50 -97 -41Q-105 -40 -105 -32Q-105 -29 -103 -26T-78 -25T-21
-28T42 -20Q91 -5 136 65Q217 193 369 219L379 222Q300 253 282 276Q275 286 275 296T282 317Q328 387 347 484Q353 512 353 543T337 588T304 603Q262 603 221 591Q213 588 212 596Q214 604 222 608Q284 624 325 624T393 612Q447 588 447 522T352 318Z" />
<glyph unicode="~" glyph-name="asciitilde" horiz-adv-x="584" d="M398 184Q356 184 295 218T182 252T97 180L61 236Q106 322 186 322Q225 322 300 288T396 254T435 266T462 290T487 326L523 270Q469 184 398 184Z" />
<glyph unicode="&#xa0;" glyph-name="nbspace" horiz-adv-x="267" />
<glyph unicode="&#xa1;" glyph-name="exclamdown" horiz-adv-x="262" d="M201 309Q222 334 252 334Q260 334 269 326T279 309Q279 279 263 261Q239 236 213 236Q201 236 192 243T182 260Q182 289 201 309ZM199 131Q199 66 158 -18T84 -136Q12 -215 -39 -215Q-57
-215 -64 -208T-71 -193T-56 -168T-14 -130T25 -95Q68 -50 109 17Q170 117 170 165Q170 183 160 190Q155 192 156 194T159 197T164 196Q199 178 199 131Z" />
<glyph unicode="&#xa2;" glyph-name="cent" horiz-adv-x="375" d="M333 431Q370 418 370 386Q370 374 363 359T341 344T335 363T346 397Q346 418 323 417Q243 298 167 171Q178 168 190 168Q230 168 286 202L332 231Q350 241 349 229Q348 219 337 212Q291 183 248
164T159 144Q155 144 151 144Q148 138 132 107Q92 30 81 0Q77 -13 66 -13Q51 -13 61 16T129 146Q95 151 75 172T54 228Q54 313 131 375T292 437L310 436Q377 536 384 536Q399 536 399 529T379 497T333 431ZM126 221Q126 194 149 179Q208 277 292 409L282 404Q237
384 186 332Q126 271 126 221Z" />
<glyph unicode="&#xa3;" glyph-name="sterling" horiz-adv-x="566" d="M-46 -17Q-46 11 -4 34Q14 45 41 53Q64 78 103 173T151 283Q124 284 112 296T99 317Q99 349 158 365Q160 366 167 367T183 369T193 371Q290 567 367 619Q414 651 463 651T546 627Q592 595
592 553Q592 550 590 549T585 554Q577 583 555 593T518 603Q477 603 443 582T361 501T275 375Q360 366 376 353Q391 342 397 332T401 316T388 317T345 324T229 301Q227 299 211 257T163 160T88 64L126 70Q166 73 225 73T349 62T467 34T545 -9T569 -62Q569 -73 566
-84T558 -95Q550 -95 553 -88T556 -76Q556 -54 503 -34Q407 1 254 1Q170 1 114 -12Q5 -36 -20 -36T-46 -17Z" />
<glyph unicode="&#xa4;" glyph-name="currency" horiz-adv-x="653" d="M90 96Q87 96 87 118T90 157T97 177Q110 185 181 243Q153 287 153 339T180 433Q131 472 97 500Q88 504 88 528Q88 581 92 581L214 473Q265 517 331 517T449 471L571 581Q576 581 576 555Q576
505 565 500Q560 495 481 434Q509 390 509 338T481 243Q554 183 565 177Q576 169 576 125Q576 96 572 97L449 206Q399 161 331 161T212 206L90 96ZM204 390T204 337T242 246T333 208T424 246T462 337T424 428T333 466T242 428Z" />
<glyph unicode="&#xa5;" glyph-name="yen" horiz-adv-x="484" d="M791 666Q792 664 792 662T785 660T773 660Q693 660 573 549T354 293Q392 292 441 286Q454 284 455 276T443 268Q383 267 333 262Q310 226 287 183Q327 181 381 175Q395 173 395 165T383 157Q323
156 273 151Q269 143 269 141Q238 44 238 -12T273 -76Q278 -78 287 -78T308 -70T319 -65T313 -74Q295 -88 269 -88Q265 -88 260 -88Q171 -81 171 15Q171 62 194 141Q117 130 61 123Q52 122 52 136Q52 141 53 148Q57 175 71 176Q140 181 208 183L229 249Q148 237
120 234Q108 233 112 259T130 287Q187 292 242 294Q243 297 244 302T247 311Q265 386 265 476Q265 496 264 532T246 604Q225 653 195 653Q178 653 153 631T98 545T69 417Q69 406 70 397T68 386T63 390Q54 409 54 434Q54 525 78 569T137 642Q186 683 230 683Q256
683 279 668Q336 631 336 513Q336 453 328 390T314 303Q382 407 477 500T666 650Q715 679 759 679Q782 679 791 666Z" />
<glyph unicode="&#xa6;" glyph-name="brokenbar" horiz-adv-x="230" d="M157 335Q157 319 132 319T106 334Q106 500 95 660Q93 679 107 679Q118 679 132 672T148 665Q160 662 160 553T157 335ZM106 218Q106 233 129 233T153 215Q140 -33 116 -110Q106 -141 88
-146Q86 -146 84 -146Q76 -146 76 -137Q76 -134 77 -132Q103 -29 106 218Z" />
<glyph unicode="&#xa7;" glyph-name="section" horiz-adv-x="553" d="M766 576Q758 589 738 589T701 584T659 570Q620 554 596 540Q506 492 428 428T346 331Q344 306 373 290Q398 275 431 262T479 241Q524 218 543 187T562 128Q562 89 532 56T465 12T396 0T339
-1T279 6Q306 -25 306 -60Q306 -78 298 -98Q276 -153 207 -188Q154 -215 92 -226Q28 -237 -14 -237Q-90 -237 -166 -205T-260 -103Q-223 -136 -158 -150T-34 -164Q54 -163 96 -150T170 -120T228 -79T255 -27T217 25Q214 27 157 50T69 101T38 165Q38 222 87 265Q173
339 291 346Q288 356 290 371Q298 437 378 504T557 610T727 649Q776 649 803 632T830 583Q830 579 830 574Q827 543 721 445Q682 409 653 365T623 286Q623 283 623 280Q592 304 592 344Q592 380 623 432Q668 508 766 576ZM94 146Q94 125 105 114T124 96T146 83T169
71Q214 51 222 47Q254 44 303 44T397 57T474 99Q510 131 510 163T469 222Q461 227 424 241Q334 276 305 315Q301 313 281 308T246 297Q206 283 172 259Q94 206 94 146Z" />
<glyph unicode="&#xa8;" glyph-name="dieresis" horiz-adv-x="314" d="M191 414T203 428T225 444T241 447T256 442T264 421T249 390Q233 371 219 371T196 378T189 399ZM142 436T142 421T127 388T89 371Q82 371 75 377T67 397T82 429T120 447Q126 447 134 442Z" />
<glyph unicode="&#xa9;" glyph-name="copyright" horiz-adv-x="767" d="M749 462Q749 417 725 353T646 221T508 103Q405 42 288 42Q222 42 162 65T68 136Q23 199 23 285Q23 396 102 492Q226 645 466 645Q549 645 619 622Q663 607 700 572Q749 526 749 462ZM642
535Q587 578 524 593T421 609T363 608Q283 602 221 567T116 477Q57 403 57 325Q57 236 119 176Q157 139 210 124T300 108Q440 108 542 172Q620 222 668 294Q710 354 710 410Q710 483 642 535ZM496 387Q487 387 487 398Q487 415 514 438T541 482Q541 522 478 522T353
490T247 410Q194 348 194 300T247 226Q279 211 313 211T387 218T479 250T559 297Q563 301 564 298T564 293Q540 263 475 226Q375 169 297 169Q248 169 213 192Q159 227 159 294T219 425Q265 474 346 505T487 537T568 507Q577 496 577 479T555 435Q512 387 496 387Z"
/>
<glyph unicode="&#xaa;" glyph-name="ordfeminine" horiz-adv-x="289" d="M229 478Q178 422 178 401Q178 390 187 390T229 407T311 473Q319 480 319 474L317 468Q214 371 168 371Q153 371 144 380T135 402Q135 413 145 441Q118 408 87 389T38 370T8 382T-3 414Q-3
451 32 488T112 540Q131 545 150 545T186 535T209 510Q222 510 230 503T229 478ZM-8 295T-8 306T-5 329T3 341Q57 348 98 348T157 346T177 339T178 332T158 327T113 322T50 308Q-3 295 -5 295ZM180 527Q135 527 90 475T44 404T56 386Q81 386 134 440Q135 441 141
447T154 458Q196 501 196 514T180 527Z" />
<glyph unicode="&#xab;" glyph-name="guillemotleft" horiz-adv-x="458" d="M119 150Q86 179 59 179T31 181Q31 186 48 195Q122 239 187 290T267 372Q272 382 285 383T298 382T298 378Q267 311 116 218Q141 207 166 177T202 108Q204 99 204 90Q204 62 183 38T159
14Q153 14 161 27Q168 42 168 57Q168 107 119 150ZM275 172Q242 201 215 201T188 203Q188 209 238 238T348 316T423 394Q428 405 447 406Q456 405 455 400Q421 331 272 241Q297 230 322 200T358 130Q360 121 360 112Q360 84 339 60T314 36Q309 36 318 49Q324 63
324 78Q324 129 275 172Z" />
<glyph unicode="&#xac;" glyph-name="logicalnot" horiz-adv-x="361" d="M275 200Q231 149 204 107T176 47T196 29T280 70T398 162Q403 167 407 166T411 161T407 152Q278 34 210 4Q180 -8 167 -8Q119 -8 102 8T84 43Q84 81 99 101Q148 170 177 218Q186 232 174
237T143 243T123 244Q56 154 -10 102Q-18 95 -19 102Q-19 110 -8 121Q104 218 145 316Q148 324 154 324Q157 324 161 322Q173 317 127 249Q160 262 236 262Q271 262 286 236Q288 232 288 224T275 200Z" />
<glyph unicode="&#xae;" glyph-name="registered" horiz-adv-x="767" d="M749 462Q749 417 725 353T646 221T508 103Q404 42 287 42Q234 42 181 57T92 110Q22 182 22 275Q22 337 47 399Q96 523 218 589Q321 645 466 645Q549 645 619 622Q663 607 700 572Q749 526
749 462ZM150 151Q150 182 238 309Q234 321 235 330Q236 339 251 351T275 363Q362 481 372 481T382 468Q333 408 282 338Q283 337 283 333Q295 335 323 336T406 356Q503 388 546 443Q566 468 566 486T543 517T469 529T331 505T210 450Q200 442 203 437T204 432T199
433Q186 441 182 456T182 476Q212 520 340 552Q431 574 473 574T535 570Q591 559 591 501Q591 492 588 476T563 435T504 388Q406 332 306 325Q302 325 296 325T287 324Q306 276 364 227T461 177Q477 177 488 184T501 202Q503 207 506 201Q501 160 440 160T326 199T246
288Q183 198 167 157Q164 149 157 147Q223 108 311 108Q440 108 542 172Q620 222 668 294Q710 354 710 410Q710 483 642 535Q547 609 401 609Q295 609 227 570Q127 513 84 430Q55 374 55 321Q55 296 62 272Q81 197 150 151Z" />
<glyph unicode="&#xaf;" glyph-name="overscore" horiz-adv-x="328" d="M286 404Q257 408 233 408T195 407T158 403T125 398T90 390T61 384T55 383T52 396Q52 436 63 436Q126 444 158 444T227 442T292 428Q298 427 298 420Q298 404 286 404Z" />
<glyph unicode="&#xb0;" glyph-name="degree" horiz-adv-x="653" d="M159 459Q119 459 119 499Q119 508 122 523T146 565T190 611Q223 639 262 639Q280 639 297 632Q322 622 322 590T288 519Q251 480 193 464Q173 459 159 459ZM268 599T236 599T172 566T140 505T163
478Q175 478 197 487T243 521Q268 550 268 574Z" />
<glyph unicode="&#xb1;" glyph-name="plusminus" horiz-adv-x="438" d="M442 265Q449 263 449 257T445 246T433 241Q389 244 349 244T271 242Q207 142 202 72Q202 65 197 63T186 64T181 74Q186 145 232 238Q194 234 106 219Q99 218 99 231T102 259T114 273Q177
279 256 281Q300 353 348 401Q354 407 363 407T386 404T393 394Q345 346 297 280Q396 279 442 265ZM55 -32T55 -19T59 8T71 22Q140 29 201 29T316 21Q328 19 328 11T318 3Q246 1 167 -13Q65 -32 60 -32Z" />
<glyph unicode="&#xb2;" glyph-name="twosuperior" horiz-adv-x="484" d="M144 526T144 513T164 500T225 510T294 546Q299 553 299 541Q299 525 269 506Q217 472 149 472Q116 472 108 489Q106 493 106 502T130 534T217 577T338 597Q421 597 446 554Q454 542 454
528Q454 479 386 436Q339 406 199 359Q284 358 345 335T406 271Q406 256 402 256Q398 257 398 260T399 265Q399 279 361 292T274 306Q185 306 153 299T92 283T50 272T21 272Q16 275 16 282T19 298T34 317Q62 343 127 354Q147 357 165 365Q293 422 332 443Q383 471
383 514Q383 532 369 549T330 569T285 573Q224 573 174 543Q144 526 144 513Z" />
<glyph unicode="&#xb3;" glyph-name="threesuperior" horiz-adv-x="413" d="M283 604T316 604T371 592T394 558T368 514T310 480Q337 480 358 463T380 423T372 380Q336 295 179 260Q144 252 117 252T70 256Q19 264 13 302Q12 306 12 311Q12 354 95 388Q136 404
211 404Q252 404 258 399Q269 390 252 390Q251 390 242 390T178 378T82 348Q26 326 26 302Q26 292 44 283Q63 273 105 273T225 308Q324 351 324 397Q324 417 301 436Q277 458 237 461Q218 462 218 471Q218 483 251 485T309 500T334 538Q334 568 302 580Q288 586
267 586T211 578T171 549Q168 538 185 531T212 522T221 516Q219 514 198 514T151 524Q137 531 137 539Q137 586 258 601Q283 604 316 604Z" />
<glyph unicode="&#xb4;" glyph-name="acute" horiz-adv-x="275" d="M280 432Q280 420 258 401T181 362Q121 341 60 341Q36 341 36 348Q36 351 52 354Q104 358 162 395T220 455Q220 459 218 462T219 466T242 460T278 438Q280 435 280 432Z" />
<glyph unicode="&#xb5;" glyph-name="mu" horiz-adv-x="359" d="M169 164Q166 159 128 105T89 41T99 30Q117 30 152 62L184 93Q233 146 265 188T300 234Q304 236 306 240Q323 259 342 260Q372 260 397 238Q391 229 378 212T351 178T320 137T289 94T263 52T244
13Q228 -31 244 -42Q248 -46 242 -47Q240 -47 238 -46Q200 -33 200 16T232 132Q123 -6 57 -6H48Q-137 -283 -137 -335Q-137 -340 -134 -344Q-130 -350 -138 -350Q-139 -350 -140 -349Q-172 -317 -172 -284Q-172 -216 -55 -24T138 243Q160 265 184 265T233 241Q211
217 169 164Z" />
<glyph unicode="&#xb6;" glyph-name="paragraph" horiz-adv-x="463" d="M465 566Q517 618 556 618Q567 618 569 611Q566 608 551 603T529 592Q486 560 424 465T310 271T198 78T100 -45Q95 -50 90 -50Q85 -52 85 -48Q89 -41 100 -32Q162 30 279 266Q355 419 405
490Q429 523 454 552Q371 552 159 154Q151 139 136 110T77 15T-28 -117T-134 -193Q-137 -193 -139 -193Q-146 -193 -146 -188Q-143 -182 -136 -180Q-86 -170 -31 -101Q29 -26 64 35T115 122Q156 194 182 247Q165 245 151 245Q70 245 70 296Q70 305 72 315Q87 388
176 456T342 540Q354 543 385 552Q439 566 451 566T465 566Z" />
<glyph unicode="&#xb7;" glyph-name="middot" horiz-adv-x="232" d="M126 120Q115 120 106 127T96 144Q96 174 113 192Q136 218 162 218Q173 218 183 210T193 184T173 143T126 120Z" />
<glyph unicode="&#xb8;" glyph-name="cedilla" horiz-adv-x="758" d="M242 -40T228 -55T213 -82T234 -124T256 -172Q256 -231 111 -231Q106 -231 106 -226T115 -218T142 -214T169 -211T188 -199Q203 -183 203 -169T194 -135T184 -97T205 -56T250 -33Q255 -33 256
-34T257 -38Q242 -40 228 -55Z" />
<glyph unicode="&#xb9;" glyph-name="onesuperior" horiz-adv-x="338" d="M157 532T193 558T260 597T305 609T326 605T333 597T330 594T325 595Q306 595 282 569T234 496T190 406T150 312T122 247Q83 254 69 280Q65 287 65 300T73 335Q107 430 171 513Q138 490
56 445Q45 438 45 446T59 461T115 500Z" />
<glyph unicode="&#xba;" glyph-name="ordmasculine" horiz-adv-x="224" d="M106 386Q66 364 43 364Q-3 364 -3 404Q-3 431 8 449L-7 437Q-13 431 -13 438Q-13 443 -3 452T29 482T62 512Q103 545 138 545Q154 545 169 538Q194 527 194 495T160 425Q144 408 121
395Q170 401 225 454Q233 461 233 453Q233 451 231 449Q166 386 108 386Q107 386 106 386ZM170 343Q178 343 178 336T171 328Q118 325 66 312Q-3 295 -5 295T-8 306T-5 329T3 341Q57 348 98 348T170 343ZM133 505Q120 505 96 486Q67 462 67 433T86 397Q100 405
122 428Q149 456 149 480T133 505ZM7 406Q7 376 31 376Q49 376 77 391Q52 402 52 429Q52 459 75 482T123 511Q117 512 110 512Q83 512 51 485Q7 448 7 406Z" />
<glyph unicode="&#xbb;" glyph-name="guillemotright" horiz-adv-x="474" d="M385 262Q418 233 445 233T472 231Q472 226 464 221T414 190T312 118T237 40Q232 29 219 28T206 29T206 34Q222 69 273 111T388 193Q363 204 338 234T302 304Q300 313 300 322Q300 350
321 374T345 398Q351 398 343 385Q336 370 336 355Q336 305 385 262ZM199 241Q232 212 259 212T286 210Q286 205 278 200T228 169T126 97T51 19Q46 8 27 7Q18 8 19 13Q52 79 202 172Q177 183 152 213T116 282Q114 291 114 301Q114 329 135 353T159 377Q165 377
157 364Q150 349 150 334Q150 284 199 241Z" />
<glyph unicode="&#xbc;" glyph-name="onequarter" horiz-adv-x="595" d="M325 595Q306 595 282 569T234 496T190 406T150 312T122 247Q83 254 69 280Q65 287 65 300T73 335Q107 430 171 513Q138 490 56 445Q45 438 45 446T59 461T115 500T193 558T260 597T305
609T327 604T333 597T329 595T325 595ZM474 644L509 649Q531 649 516 630Q386 460 245 251T61 -58Q56 -69 49 -69Q47 -69 42 -66T37 -54Q37 -12 153 176T366 504T474 644ZM412 116Q385 47 385 19T407 -19Q411 -22 404 -25Q396 -26 388 -26Q345 -26 330 9Q325 21
325 44T344 113Q313 112 274 102T220 91T203 98Q200 99 200 103T209 118Q219 128 247 149T319 204T396 262Q520 353 560 353Q580 353 580 344Q580 341 577 341T572 341Q542 341 502 285T425 148Q534 140 534 92Q534 74 527 77Q525 78 526 81T527 86Q527 98 498
107T412 116ZM432 264Q420 257 351 205T259 135Q314 147 361 148Q366 158 395 206T432 264Z" />
<glyph unicode="&#xbd;" glyph-name="onehalf" horiz-adv-x="668" d="M325 595Q306 595 282 569T234 496T190 406T150 312T122 247Q83 254 69 280Q65 287 65 300T73 335Q107 430 171 513Q138 490 56 445Q45 438 45 446T59 461T115 500T193 558T260 597T305 609T327
604T333 597T329 595T325 595ZM474 644L509 649Q531 649 516 630Q386 460 245 251T61 -58Q56 -69 49 -69Q47 -69 42 -66T37 -54Q37 -12 153 176T366 504T474 644ZM349 269Q315 250 315 236T336 221T389 229Q448 243 476 272Q479 274 480 272Q481 269 481 265Q481
248 451 229Q393 192 320 192Q284 192 275 209Q273 214 273 218Q273 233 300 258T393 305T523 327Q613 327 640 280Q649 267 649 251Q649 199 576 153Q520 118 374 70Q501 68 566 24Q597 3 597 -26Q597 -42 591 -42Q587 -42 589 -33T575 -14Q546 5 457 10Q438 12
418 12Q356 12 324 5T271 -8T235 -20Q191 -33 182 -24Q177 -21 177 -13T181 4T196 25Q224 51 297 65Q321 69 337 76Q470 135 508 156Q573 191 573 235Q573 259 554 276T512 297T468 300Q403 300 349 269Z" />
<glyph unicode="&#xbe;" glyph-name="threequarters" horiz-adv-x="712" d="M539 116Q513 51 513 21T535 -19Q539 -22 532 -25Q524 -26 516 -26Q472 -26 458 9Q452 22 452 46T471 113Q434 110 399 101T349 91T330 98Q327 99 329 105T337 118T373 147T446 203T522
262Q646 353 688 353Q698 353 704 349Q708 345 708 343T705 340T700 341Q669 341 629 285T553 148Q607 144 634 129T662 92Q662 74 655 77Q653 78 654 80T655 85Q655 97 627 106T539 116ZM283 604T316 604T371 592T394 558T368 514T310 480Q337 480 358 463T380
423T372 380Q336 295 179 260Q144 252 117 252T70 256Q19 264 13 302Q12 306 12 311Q12 354 95 388Q136 404 211 404Q252 404 258 399Q269 390 252 390Q251 390 242 390T178 378T82 348Q26 326 26 302Q26 292 44 283Q63 273 105 273T225 308Q324 351 324 397Q324
417 301 436Q277 458 237 461Q218 462 218 471Q218 483 251 485T309 500T334 538Q334 568 302 580Q288 586 267 586T211 578T171 549Q168 538 185 531T212 522T221 516Q219 514 198 514T151 524Q137 531 137 539Q137 586 258 601Q283 604 316 604ZM576 584L611
589Q633 589 618 570Q488 400 347 191T163 -118Q158 -129 151 -129Q149 -129 144 -126T139 -114Q139 -72 255 116T468 444T576 584ZM559 264Q545 255 476 203T387 135Q440 147 489 148Q501 171 526 213T559 264Z" />
<glyph unicode="&#xbf;" glyph-name="questiondown" horiz-adv-x="262" d="M201 309Q222 334 252 334Q260 334 269 326T279 309Q279 279 263 261Q239 236 213 236Q201 236 192 243T182 260Q182 289 201 309ZM-227 -250Q-237 -227 -237 -203T-224 -154Q-201 -107
-149 -69T-39 2T72 68Q158 119 158 148Q158 156 154 160T150 170Q151 177 159 177Q162 177 165 175Q177 164 177 150Q177 109 79 42Q4 -12 -104 -94Q-176 -161 -176 -204Q-176 -226 -156 -242Q-125 -266 -62 -266Q24 -266 91 -239T200 -186T270 -136Q320 -90 292
-74Q286 -71 275 -71Q233 -71 164 -102T42 -168T-26 -229Q-26 -230 -27 -233T-32 -232T-36 -218T-23 -191Q43 -94 126 -58Q201 -24 256 -24Q302 -24 318 -51Q324 -61 324 -71T319 -99T283 -147T204 -207T107 -255Q-37 -311 -119 -311T-227 -250Z" />
<glyph unicode="&#xc0;" glyph-name="Agrave" horiz-adv-x="1030" d="M1281 770T1236 790T1174 829T1157 854T1161 867T1186 878T1211 884T1215 881Q1212 876 1212 871Q1212 851 1257 816T1348 774Q1360 772 1361 768Q1363 760 1322 765ZM978 -89Q980 -90 980
-93Q978 -100 972 -96Q885 -35 885 83Q885 132 904 187T974 321T1071 456T1161 562T1207 616Q1219 634 1223 612Q1224 605 1224 596T1219 580Q1157 504 1099 408Q1002 246 960 113Q944 60 944 3T978 -89ZM146 261Q310 329 541 329Q655 329 769 293Q796 321 849
376T933 464Q1023 557 1080 601Q1176 676 1256 676Q1292 676 1322 665T1358 647T1364 639T1362 636T1356 638Q1337 656 1282 656Q1189 656 1086 575Q1012 515 963 466T861 361T788 286Q888 249 897 189Q898 183 897 181T893 181T889 187Q881 206 833 217Q790 227
734 232Q531 36 375 -17Q290 -47 214 -47Q78 -47 26 -7T-27 83Q-27 102 -20 122Q10 204 146 261ZM647 236Q514 236 367 208Q141 168 73 89Q52 64 52 42Q52 16 80 -5Q113 -30 194 -30T371 -3Q513 41 709 234Q678 236 647 236Z" />
<glyph unicode="&#xc1;" glyph-name="Aacute" horiz-adv-x="1030" d="M1452 854Q1454 851 1454 844T1432 817T1355 779T1257 758T1210 763Q1209 769 1226 770Q1278 774 1336 811T1394 871Q1394 875 1392 878T1393 882T1416 876T1452 854ZM978 -89Q980 -90 980
-93Q978 -100 972 -96Q885 -35 885 83Q885 132 904 187T974 321T1071 456T1161 562T1207 616Q1219 634 1223 612Q1224 605 1224 596T1219 580Q1157 504 1099 408Q1002 246 960 113Q944 60 944 3T978 -89ZM146 261Q310 329 541 329Q655 329 769 293Q796 321 849
376T933 464Q1023 557 1080 601Q1176 676 1256 676Q1292 676 1322 665T1358 647T1364 639T1362 636T1356 638Q1337 656 1282 656Q1189 656 1086 575Q1012 515 963 466T861 361T788 286Q888 249 897 189Q898 183 897 181T893 181T889 187Q881 206 833 217Q790 227
734 232Q531 36 375 -17Q290 -47 214 -47Q78 -47 26 -7T-27 83Q-27 102 -20 122Q10 204 146 261ZM647 236Q514 236 367 208Q141 168 73 89Q52 64 52 42Q52 16 80 -5Q113 -30 194 -30T371 -3Q513 41 709 234Q678 236 647 236Z" />
<glyph unicode="&#xc2;" glyph-name="Acircumflex" horiz-adv-x="1030" d="M146 261Q310 329 541 329Q655 329 769 293Q796 321 849 376T933 464Q1023 557 1080 601Q1176 676 1256 676Q1292 676 1322 665T1359 646T1363 636T1356 638Q1337 656 1282 656Q1189 656
1086 575Q1012 515 963 466T861 361T788 286Q888 249 897 189Q898 183 897 181T893 181T889 187Q881 206 833 217Q790 227 734 232Q531 36 375 -17Q290 -47 214 -47Q78 -47 26 -7T-27 83Q-27 102 -20 122Q10 204 146 261ZM647 236Q514 236 367 208Q141 168 73 89Q52
64 52 42Q52 16 80 -5Q113 -30 194 -30T371 -3Q513 41 709 234Q678 236 647 236ZM978 -89Q980 -90 980 -93Q978 -100 972 -96Q885 -35 885 83Q885 132 904 187T974 321T1071 456T1161 562T1207 616Q1219 634 1223 612Q1224 605 1224 596T1219 580Q1157 504 1099
408Q1002 246 960 113Q944 60 944 3T978 -89ZM1418 768Q1421 768 1428 769T1436 766Q1436 761 1417 756T1376 750T1333 764Q1301 785 1301 818Q1229 759 1171 759Q1161 759 1161 762T1165 771Q1169 777 1183 777T1236 797T1310 846Q1323 864 1344 881T1368 899T1364
887T1357 859Q1357 813 1378 791T1418 768Z" />
<glyph unicode="&#xc3;" glyph-name="Atilde" horiz-adv-x="1030" d="M1416 818Q1427 815 1427 804Q1427 790 1406 773Q1370 746 1342 746T1300 755T1267 778Q1247 792 1235 792Q1212 792 1181 761Q1173 752 1169 757Q1167 761 1172 766Q1231 822 1270 822T1335
807T1378 792Q1405 792 1416 818ZM978 -89Q980 -90 980 -93Q978 -100 972 -96Q885 -35 885 83Q885 132 904 187T974 321T1071 456T1161 562T1207 616Q1219 634 1223 612Q1224 605 1224 596T1219 580Q1157 504 1099 408Q1002 246 960 113Q944 60 944 3T978 -89ZM146
261Q310 329 541 329Q655 329 769 293Q796 321 849 376T933 464Q1023 557 1080 601Q1176 676 1256 676Q1292 676 1322 665T1358 647T1364 639T1362 636T1356 638Q1337 656 1282 656Q1189 656 1086 575Q1012 515 963 466T861 361T788 286Q888 249 897 189Q898 183
897 181T893 181T889 187Q881 206 833 217Q790 227 734 232Q531 36 375 -17Q290 -47 214 -47Q78 -47 26 -7T-27 83Q-27 102 -20 122Q10 204 146 261ZM647 236Q514 236 367 208Q141 168 73 89Q52 64 52 42Q52 16 80 -5Q113 -30 194 -30T371 -3Q513 41 709 234Q678
236 647 236Z" />
<glyph unicode="&#xc4;" glyph-name="Adieresis" horiz-adv-x="1030" d="M1312 760T1314 774T1331 805T1367 822Q1374 822 1381 816T1389 795T1376 766T1348 748T1322 752ZM1190 760T1192 774T1209 805T1246 822Q1252 822 1260 816T1267 794T1253 765T1226 748T1200
752ZM978 -89Q980 -90 980 -93Q978 -100 972 -96Q885 -35 885 83Q885 132 904 187T974 321T1071 456T1161 562T1207 616Q1219 634 1223 612Q1224 605 1224 596T1219 580Q1157 504 1099 408Q1002 246 960 113Q944 60 944 3T978 -89ZM146 261Q310 329 541 329Q655
329 769 293Q796 321 849 376T933 464Q1023 557 1080 601Q1176 676 1256 676Q1292 676 1322 665T1358 647T1364 639T1362 636T1356 638Q1337 656 1282 656Q1189 656 1086 575Q1012 515 963 466T861 361T788 286Q888 249 897 189Q898 183 897 181T893 181T889 187Q881
206 833 217Q790 227 734 232Q531 36 375 -17Q290 -47 214 -47Q78 -47 26 -7T-27 83Q-27 102 -20 122Q10 204 146 261ZM647 236Q514 236 367 208Q141 168 73 89Q52 64 52 42Q52 16 80 -5Q113 -30 194 -30T371 -3Q513 41 709 234Q678 236 647 236Z" />
<glyph unicode="&#xc5;" glyph-name="Aring" horiz-adv-x="1030" d="M978 -89Q980 -90 980 -93Q978 -100 972 -96Q885 -35 885 83Q885 132 904 187T974 321T1071 456T1161 562T1207 616Q1219 634 1223 612Q1224 605 1224 596T1219 580Q1157 504 1099 408Q1002
246 960 113Q944 60 944 3T978 -89ZM146 261Q310 329 541 329Q655 329 769 293Q796 321 849 376T933 464Q1023 557 1082 603T1203 667Q1201 676 1201 684T1204 706T1228 748T1272 794Q1305 822 1345 822L1380 815Q1405 804 1405 772T1370 702Q1352 682 1321 666Q1350
655 1358 647T1363 636T1357 636Q1344 651 1299 655Q1267 641 1249 641T1220 646Q1156 630 1086 575Q1012 515 963 466T861 361T788 286Q888 249 897 189Q898 183 897 181T893 181T889 187Q881 206 833 217Q790 227 734 232Q531 36 375 -17Q290 -47 214 -47Q78
-47 26 -7T-27 83Q-27 102 -20 122Q10 204 146 261ZM1317 781Q1299 781 1275 766T1236 726T1222 689T1225 672Q1244 675 1264 675L1287 674Q1307 685 1324 703Q1350 732 1350 756T1317 781ZM647 236Q514 236 367 208Q141 168 73 89Q52 64 52 42Q52 16 80 -5Q113
-30 194 -30T371 -3Q513 41 709 234Q678 236 647 236Z" />
<glyph unicode="&#xc6;" glyph-name="AE" horiz-adv-x="1788" d="M1053 278Q947 172 947 91Q947 51 970 19Q1012 -36 1142 -46Q1156 -48 1187 -48T1275 -36Q1423 -10 1565 66T1774 240Q1787 258 1787 249Q1787 246 1785 238Q1758 162 1602 60T1286 -77Q1220 -90
1180 -90T1118 -88Q1045 -80 998 -46Q916 13 916 101T971 277Q888 274 768 266Q661 159 568 88Q390 -47 195 -47Q78 -47 23 -5Q-54 55 -54 111Q-54 273 534 330Q687 344 823 350Q832 359 861 389T901 431T937 468T976 507T1011 540Q1043 570 1086 605T1178 658T1259
677Q1292 677 1323 670Q1350 662 1370 644T1397 598Q1495 633 1590 633Q1647 633 1688 606Q1732 578 1732 524Q1732 488 1712 450Q1706 437 1704 443T1707 462T1713 491Q1713 537 1630 537Q1527 537 1355 465Q1232 414 1140 350Q1200 347 1268 339Q1499 312 1499
253Q1499 235 1482 219T1460 207Q1458 209 1459 212T1461 217Q1461 236 1365 254T1198 275T1053 278ZM1379 591Q1365 656 1277 656T1096 583T851 351Q913 354 1031 354L1035 358Q1102 431 1195 492T1379 591ZM31 69Q31 32 80 -5Q113 -30 194 -30T371 -3Q523 44
739 264Q603 252 556 247Q31 197 31 69Z" />
<glyph unicode="&#xc7;" glyph-name="Ccedilla" horiz-adv-x="758" d="M345 325L371 321Q419 321 513 363T687 469T766 580Q766 611 736 623T669 635Q552 635 417 568T184 410Q45 278 45 170Q45 126 67 94T125 44Q196 12 278 12Q396 12 533 61T777 184Q780 187
784 187T788 183T785 175Q704 90 545 26T265 -38H257Q242 -40 228 -55T213 -82T234 -124T256 -172Q256 -231 111 -231Q106 -231 106 -226T115 -218T142 -214T169 -211T188 -199Q203 -183 203 -169T194 -135T184 -99T198 -63T232 -36Q141 -28 79 18T17 153Q17 288
168 425Q278 523 431 594T716 665Q797 665 842 626Q868 602 868 567Q868 518 819 469T700 384T560 326Q476 297 417 297Q386 297 363 304T340 320Q340 325 345 325Z" />
<glyph unicode="&#xc8;" glyph-name="Egrave" horiz-adv-x="912" d="M740 735T695 755T633 793T616 818T620 831T645 842T670 848T673 845T671 836Q671 816 716 781T807 738Q819 736 821 732Q823 725 782 730ZM813 528Q813 574 730 574Q627 574 450 501T173 335Q112
278 79 225T46 131T68 60Q106 2 239 -9Q254 -10 286 -10T375 1Q523 28 665 104T874 277Q887 296 887 287Q887 283 885 275Q858 199 702 97Q473 -53 260 -53Q136 -53 64 20Q16 67 16 146Q16 214 51 278Q136 438 346 561Q470 634 569 658Q632 670 689 670T788 644Q832
615 832 562Q832 528 812 487Q806 475 804 481T807 499T813 528ZM567 303Q573 296 573 292T572 284Q566 276 551 286Q517 311 442 311Q349 311 258 286Q219 275 204 275Q181 275 174 296Q173 297 173 299Q173 310 192 325T264 350Q297 358 339 358T430 352Q534
339 567 303Z" />
<glyph unicode="&#xc9;" glyph-name="Eacute" horiz-adv-x="912" d="M892 831Q896 827 896 819T874 791T798 753T682 732Q655 730 653 738Q652 740 657 742L669 744Q721 748 779 785T837 845Q837 849 835 852T836 856T857 851T892 831ZM813 528Q813 574 730 574Q627
574 450 501T173 335Q112 278 79 225T46 131T68 60Q106 2 239 -9Q254 -10 286 -10T375 1Q523 28 665 104T874 277Q887 296 887 287Q887 283 885 275Q858 199 702 97Q473 -53 260 -53Q136 -53 64 20Q16 67 16 146Q16 214 51 278Q136 438 346 561Q470 634 569 658Q632
670 689 670T788 644Q832 615 832 562Q832 528 812 487Q806 475 804 481T807 499T813 528ZM567 303Q573 296 573 292T572 284Q566 276 551 286Q517 311 442 311Q349 311 258 286Q219 275 204 275Q181 275 174 296Q173 297 173 299Q173 310 192 325T264 350Q297
358 339 358T430 352Q534 339 567 303Z" />
<glyph unicode="&#xca;" glyph-name="Ecircumflex" horiz-adv-x="912" d="M813 528Q813 574 730 574Q627 574 450 501T173 335Q112 278 79 225T46 131T68 60Q106 2 239 -9Q254 -10 286 -10T375 1Q523 28 665 104T874 277Q887 296 887 287Q887 283 885 275Q858
199 702 97Q473 -53 260 -53Q136 -53 64 20Q16 67 16 146Q16 214 51 278Q136 438 346 561Q470 634 569 658Q632 670 689 670T788 644Q832 615 832 562Q832 528 812 487Q806 475 804 481T807 499T813 528ZM258 286Q219 275 204 275Q181 275 174 296Q173 297 173
299Q173 310 192 325T264 350Q297 358 339 358T430 352Q534 339 567 303Q577 292 572 284T551 286Q517 311 433 311T258 286ZM755 791Q722 764 685 748T631 732T614 735T618 745T625 751T630 751Q652 751 690 771T763 820Q773 835 796 854T822 874T817 862T810
827T821 783Q840 742 871 742Q875 742 882 743T890 739Q890 733 872 729T831 724T787 738Q755 759 755 791Z" />
<glyph unicode="&#xcb;" glyph-name="Edieresis" horiz-adv-x="912" d="M790 772T802 786T824 802T840 805T855 799T862 777T848 748T821 731T796 735T788 757ZM668 772T680 786T702 802T718 805T733 799T741 777T727 748T699 731T674 735T666 757ZM813 528Q813
574 730 574Q627 574 450 501T173 335Q112 278 79 225T46 131T68 60Q106 2 239 -9Q254 -10 286 -10T375 1Q523 28 665 104T874 277Q887 296 887 287Q887 283 885 275Q858 199 702 97Q473 -53 260 -53Q136 -53 64 20Q16 67 16 146Q16 214 51 278Q136 438 346 561Q470
634 569 658Q632 670 689 670T788 644Q832 615 832 562Q832 528 812 487Q806 475 804 481T807 499T813 528ZM567 303Q573 296 573 292T572 284Q566 276 551 286Q517 311 442 311Q349 311 258 286Q219 275 204 275Q181 275 174 296Q173 297 173 299Q173 310 192
325T264 350Q297 358 339 358T430 352Q534 339 567 303Z" />
<glyph unicode="&#xcc;" glyph-name="Igrave" horiz-adv-x="595" d="M676 704T631 724T569 763T552 788T556 800T581 811T606 817T609 814T607 806Q607 786 652 750T743 707Q755 705 757 702Q759 694 718 699ZM752 521Q752 552 704 564T587 576T405 556Q214 521
137 464Q104 440 104 417T136 372Q143 368 136 368T123 371Q98 388 87 419Q82 433 82 450Q82 511 143 545Q220 590 335 616T552 643Q620 643 688 618Q724 604 742 579T760 526Q760 503 755 503T750 510T752 521ZM646 563Q655 563 655 558Q655 551 644 536Q496 341
341 79Q406 72 455 56T535 7T565 -67Q565 -94 557 -93Q552 -93 553 -86T555 -76Q555 -53 520 -34Q457 0 336 0Q316 0 295 -1Q244 -92 225 -140Q220 -151 216 -151T211 -140Q211 -114 270 -2Q202 -8 132 -36Q103 -47 85 -54T44 -66T15 -62Q7 -56 7 -45T11 -20T30
10Q60 47 150 70Q199 83 245 83T317 81Q408 235 516 398T637 562L646 563Z" />
<glyph unicode="&#xcd;" glyph-name="Iacute" horiz-adv-x="595" d="M854 805Q856 802 856 794T834 767T757 729T659 709T612 714Q612 716 617 718L628 720Q680 724 738 761T796 821Q796 825 794 828T795 832T818 826T854 805ZM752 521Q752 552 704 564T587 576T405
556Q214 521 137 464Q104 440 104 417T136 372Q143 368 136 368T123 371Q98 388 87 419Q82 433 82 450Q82 511 143 545Q220 590 335 616T552 643Q620 643 688 618Q724 604 742 579T760 526Q760 503 755 503T750 510T752 521ZM646 563Q655 563 655 558Q655 551 644
536Q496 341 341 79Q406 72 455 56T535 7T565 -67Q565 -94 557 -93Q552 -93 553 -86T555 -76Q555 -53 520 -34Q457 0 336 0Q316 0 295 -1Q244 -92 225 -140Q220 -151 216 -151T211 -140Q211 -114 270 -2Q202 -8 132 -36Q103 -47 85 -54T44 -66T15 -62Q7 -56 7 -45T11
-20T30 10Q60 47 150 70Q199 83 245 83T317 81Q408 235 516 398T637 562L646 563Z" />
<glyph unicode="&#xce;" glyph-name="Icircumflex" horiz-adv-x="595" d="M211 -140Q211 -114 270 -2Q202 -8 132 -36Q103 -47 85 -54T44 -66T15 -62Q7 -56 7 -45T11 -20T30 10Q60 47 150 70Q199 83 245 83T317 81Q408 235 516 398T637 562Q638 562 642 562T648
563T652 561T655 557Q655 551 644 536Q496 341 341 79Q406 72 455 56T535 7T565 -67Q565 -94 557 -93Q552 -93 553 -86T555 -76Q555 -53 520 -34Q457 0 336 0Q316 0 295 -1Q244 -92 225 -140Q220 -151 216 -151T211 -140ZM752 521Q752 552 704 564T587 576T405
556Q214 521 137 464Q104 440 104 417T136 372Q144 367 133 367Q127 367 123 371Q98 388 87 419Q82 433 82 450Q82 511 143 545Q220 590 335 616T552 643Q620 643 688 618Q724 604 742 579T760 526Q760 503 755 503T750 510T752 521ZM569 688Q559 688 559 691T562
701T569 707T574 706Q596 706 633 726T706 775L707 776Q719 793 741 811T766 829T761 817T754 783T765 739Q785 698 816 698Q819 698 826 699T834 696Q834 690 815 685T774 679T732 692Q700 714 699 747Q627 688 569 688Z" />
<glyph unicode="&#xcf;" glyph-name="Idieresis" horiz-adv-x="595" d="M748 699T749 714T765 746T802 762Q809 762 816 756T824 736T811 707T783 688T757 691Q748 699 749 714ZM626 699T627 714T643 746T680 762Q687 762 695 755T702 734T688 706T661 688T636
691ZM752 521Q752 552 704 564T587 576T405 556Q214 521 137 464Q104 440 104 417T136 372Q143 368 136 368T123 371Q98 388 87 419Q82 433 82 450Q82 511 143 545Q220 590 335 616T552 643Q620 643 688 618Q724 604 742 579T760 526Q760 503 755 503T750 510T752
521ZM646 563Q655 563 655 558Q655 551 644 536Q496 341 341 79Q406 72 455 56T535 7T565 -67Q565 -94 557 -93Q552 -93 553 -86T555 -76Q555 -53 520 -34Q457 0 336 0Q316 0 295 -1Q244 -92 225 -140Q220 -151 216 -151T211 -140Q211 -114 270 -2Q202 -8 132 -36Q103
-47 85 -54T44 -66T15 -62Q7 -56 7 -45T11 -20T30 10Q60 47 150 70Q199 83 245 83T317 81Q408 235 516 398T637 562L646 563Z" />
<glyph unicode="&#xd0;" glyph-name="Eth" horiz-adv-x="843" d="M863 472Q807 553 650 576Q605 583 562 583Q403 583 250 526Q134 483 74 426Q35 391 35 360Q35 341 45 328T50 312T40 314Q15 343 15 387Q15 459 72 505Q150 567 289 608T552 650T754 616Q910 550
910 389Q910 258 795 138Q659 -3 404 -46Q327 -59 264 -59Q45 -59 -1 31Q-6 41 -6 43Q-6 51 10 39Q70 -3 206 -3T485 37T731 156Q808 214 848 273Q890 335 890 383T863 472ZM450 549Q451 550 454 550H465Q472 550 472 547Q472 540 464 532Q415 478 298 321Q424
339 455 339Q465 340 465 332T454 321Q313 294 268 279Q189 169 157 83Q154 75 151 75T144 79T143 101Q156 155 236 268Q222 263 196 256Q143 240 95 225Q89 223 89 235Q89 263 109 280Q201 303 270 316Q279 328 297 353Q434 541 450 549Z" />
<glyph unicode="&#xd1;" glyph-name="Ntilde" horiz-adv-x="585" d="M-63 -140Q-68 -151 -72 -151T-76 -141Q-76 -83 100 197T336 549Q362 631 395 656Q402 661 416 661T463 648T496 617Q496 609 488 603Q443 565 418 460T393 246Q393 116 423 43Q464 149 610
395T774 642Q775 642 783 643Q814 647 814 638Q814 634 807 622Q705 489 595 312T433 21Q453 -12 480 -25Q492 -31 503 -31T520 -28T528 -25T530 -30T528 -35Q505 -52 486 -52Q426 -52 384 5T321 149T300 312Q300 398 319 484Q212 339 96 150T-63 -140ZM734 733Q768
733 779 758Q790 757 790 746Q790 731 768 713Q733 687 706 687T663 696T630 719Q610 733 599 733Q574 733 544 701Q535 692 533 695T530 700T535 707Q591 763 628 763T689 753T720 738T734 733Z" />
<glyph unicode="&#xd2;" glyph-name="Ograve" horiz-adv-x="600" d="M576 710T531 730T469 769T452 794T456 807T482 818T507 824T509 820T507 811Q507 791 552 756T642 713Q656 711 656 706T616 705ZM682 423T642 338T531 163Q444 53 324 -12Q262 -45 197 -45Q108
-45 55 18Q10 71 10 143Q10 243 83 361Q137 447 215 514T345 598T434 615T499 590Q529 563 529 510Q529 479 518 446Q514 434 511 440T511 457T515 482Q515 526 463 526Q388 526 277 454T109 305Q32 199 32 114Q32 21 136 4Q151 1 167 1Q222 1 300 29Q441 79 527
187Q642 330 642 505Q642 519 641 550T626 608Q604 654 574 645Q569 643 569 646Q570 658 594 658T642 638Q682 606 682 515Z" />
<glyph unicode="&#xd3;" glyph-name="Oacute" horiz-adv-x="600" d="M677 794Q679 791 679 784T657 757T580 719T482 698T435 703Q434 709 451 710Q502 713 560 750T619 811Q619 815 617 818T618 822T642 815T677 794ZM682 423T642 338T531 163Q444 53 324 -12Q262
-45 197 -45Q108 -45 55 18Q10 71 10 143Q10 243 83 361Q137 447 215 514T345 598T434 615T499 590Q529 563 529 510Q529 479 518 446Q514 434 511 440T511 457T515 482Q515 526 463 526Q388 526 277 454T109 305Q32 199 32 114Q32 21 136 4Q151 1 167 1Q222 1
300 29Q441 79 527 187Q642 330 642 505Q642 519 641 550T626 608Q604 654 574 645Q569 643 569 646Q570 658 594 658T642 638Q682 606 682 515Z" />
<glyph unicode="&#xd4;" glyph-name="Ocircumflex" horiz-adv-x="600" d="M682 423T642 338T531 163Q444 53 324 -12Q262 -45 197 -45Q108 -45 55 18Q10 71 10 143Q10 243 83 361Q137 447 215 514T345 598T434 615T499 590Q529 563 529 510Q529 479 518 446Q514
434 511 440T511 457T515 482Q515 526 463 526Q388 526 277 454T109 305Q32 199 32 114Q32 21 136 4Q151 1 167 1Q222 1 300 29Q441 79 527 187Q642 330 642 505Q642 519 641 550T626 608Q604 654 574 645Q569 643 569 646Q570 658 594 658T642 638Q682 606 682
515ZM729 707Q732 707 739 708T747 705Q747 700 728 695T687 689T644 703Q612 725 613 757Q580 730 543 714T480 698Q479 698 477 698Q472 698 472 701T475 710T482 716T487 716Q509 716 547 736T621 785Q631 801 654 820T679 839T675 826T668 798Q668 752 689
730T729 707Z" />
<glyph unicode="&#xd5;" glyph-name="Otilde" horiz-adv-x="600" d="M682 423T642 338T531 163Q444 53 324 -12Q262 -45 197 -45Q108 -45 55 18Q10 71 10 143Q10 243 83 361Q137 447 215 514T345 598T434 615T499 590Q529 563 529 510Q529 479 518 446Q514 434
511 440T511 457T515 482Q515 526 463 526Q388 526 277 454T109 305Q32 199 32 114Q32 21 136 4Q151 1 167 1Q222 1 300 29Q441 79 527 187Q642 330 642 505Q642 519 641 550T626 608Q604 654 574 645Q569 643 569 646Q570 658 594 658T642 638Q682 606 682 515Z"
/>
<glyph unicode="&#xd6;" glyph-name="Odieresis" horiz-adv-x="600" d="M677 780Q702 780 702 753Q702 738 689 724T661 705T635 709T627 732T641 761Q657 780 677 780ZM504 716T505 732T521 764T558 780Q565 780 573 773T580 752T566 723T539 705T514 708ZM682
423T642 338T531 163Q444 53 324 -12Q262 -45 197 -45Q108 -45 55 18Q10 71 10 143Q10 243 83 361Q137 447 215 514T345 598T434 615T499 590Q529 563 529 510Q529 479 518 446Q514 434 511 440T511 457T515 482Q515 526 463 526Q388 526 277 454T109 305Q32 199
32 114Q32 21 136 4Q151 1 167 1Q222 1 300 29Q441 79 527 187Q642 330 642 505Q642 519 641 550T626 608Q604 654 574 645Q569 643 569 646Q570 658 594 658T642 638Q682 606 682 515Z" />
<glyph unicode="&#xd7;" glyph-name="multiply" horiz-adv-x="310" d="M143 186Q269 298 297 298Q304 298 308 295T312 288T290 269Q239 236 151 158Q162 108 182 67Q213 6 252 6Q273 6 282 18Q284 20 286 19T286 15Q271 -5 246 -5Q147 -5 93 104Q2 17 -7 7T-21
-2T-26 3T-23 10Q1 46 83 127H82Q59 188 59 220T68 267T104 295T136 307Q143 307 138 295T133 265Q133 207 143 186Z" />
<glyph unicode="&#xd8;" glyph-name="Oslash" horiz-adv-x="600" d="M682 423T642 338T531 163Q444 53 324 -12Q262 -45 197 -45Q108 -45 55 18Q10 71 10 143Q10 243 83 361Q137 447 215 514T345 598T434 615T499 590Q529 563 529 510Q529 479 518 446Q514 434
511 440T511 457T515 482Q515 526 463 526Q388 526 277 454T109 305Q32 199 32 114Q32 21 136 4Q151 1 167 1Q222 1 300 29Q441 79 527 187Q642 330 642 505Q642 519 641 550T626 608Q604 654 574 645Q569 643 569 646Q570 658 594 658T642 638Q682 606 682 515Z"
/>
<glyph unicode="&#xd9;" glyph-name="Ugrave" horiz-adv-x="674" d="M659 564T614 584T552 623T535 648T539 661T564 672T590 678T592 674T590 665Q590 645 635 610T726 567Q738 565 739 562Q741 555 713 557Q659 564 614 584ZM770 452Q588 134 576 -58Q574 -81
574 -99T584 -143Q596 -174 628 -174Q643 -174 652 -166T662 -161T657 -171Q642 -185 613 -185Q610 -185 606 -185Q505 -177 505 -61Q505 -15 521 49Q532 87 563 146Q461 13 375 -29Q344 -43 320 -43T278 -24T260 21T267 79T334 268Q408 463 408 511Q408 578 321
578T117 520Q79 502 65 490T43 478Q32 478 26 493T19 522T26 549T40 566Q87 604 206 624Q266 635 328 635T436 609T483 532Q483 520 480 506Q470 456 389 301T293 101T278 33T288 -6T321 -21T380 -2T456 53T524 121T589 207T644 290Q713 402 741 450Q751 467 757
467T767 464T771 457T770 452Z" />
<glyph unicode="&#xda;" glyph-name="Uacute" horiz-adv-x="674" d="M799 643Q799 630 777 611T700 573T584 552Q557 550 555 558Q554 560 559 562L571 564Q623 568 681 605T739 665Q739 669 737 672T738 676T761 670T797 649Q799 646 799 643ZM770 452Q588 134
576 -58Q574 -81 574 -99T584 -143Q596 -174 628 -174Q643 -174 652 -166T662 -161T657 -171Q642 -185 613 -185Q610 -185 606 -185Q505 -177 505 -61Q505 -15 521 49Q532 87 563 146Q461 13 375 -29Q344 -43 320 -43T278 -24T260 21T267 79T334 268Q408 463 408
511Q408 578 321 578T117 520Q79 502 65 490T43 478Q32 478 26 493T19 522T26 549T40 566Q87 604 206 624Q266 635 328 635T436 609T483 532Q483 520 480 506Q470 456 389 301T293 101T278 33T288 -6T321 -21T380 -2T456 53T524 121T589 207T644 290Q713 402 741
450Q751 467 757 467T767 464T771 457T770 452Z" />
<glyph unicode="&#xdb;" glyph-name="Ucircumflex" horiz-adv-x="674" d="M770 452Q588 134 576 -58Q574 -81 574 -99T584 -143Q596 -174 628 -174Q643 -174 652 -166T662 -161T657 -171Q642 -185 613 -185Q610 -185 606 -185Q505 -177 505 -61Q505 -15 521 49Q532
87 563 146Q461 13 375 -29Q344 -43 320 -43T278 -24T260 21T267 79T334 268Q408 463 408 511Q408 578 321 578T117 520Q79 502 65 490T43 478Q32 478 26 493T19 522T26 549T40 566Q87 604 206 624Q266 635 328 635T436 609T483 532Q483 520 480 506Q470 456 389
301T293 101T278 33T288 -6T321 -21T380 -2T456 53T524 121T589 207T644 290Q713 402 741 450Q751 467 757 467T768 463T770 452ZM667 643Q634 615 597 599T543 583T526 586T530 596T537 602T542 601Q563 601 600 620T673 668Q687 688 709 706T734 724Q736 724
729 712T721 678T732 634Q752 593 783 593Q786 593 793 594T801 591Q801 585 782 580T741 574T698 588Q667 610 667 643Z" />
<glyph unicode="&#xdc;" glyph-name="Udieresis" horiz-adv-x="674" d="M691 622T703 636T725 652T741 655T756 649T764 627T750 598T722 581T697 585T689 607ZM569 622T581 636T603 652T619 655T634 649T642 627T628 598T601 581T575 585T567 607ZM770 452Q588
134 576 -58Q574 -81 574 -99T584 -143Q596 -174 628 -174Q643 -174 652 -166T662 -161T657 -171Q642 -185 613 -185Q610 -185 606 -185Q505 -177 505 -61Q505 -15 521 49Q532 87 563 146Q461 13 375 -29Q344 -43 320 -43T278 -24T260 21T267 79T334 268Q408 463
408 511Q408 578 321 578T117 520Q79 502 65 490T43 478Q32 478 26 493T19 522T26 549T40 566Q87 604 206 624Q266 635 328 635T436 609T483 532Q483 520 480 506Q470 456 389 301T293 101T278 33T288 -6T321 -21T380 -2T456 53T524 121T589 207T644 290Q713 402
741 450Q751 467 757 467T767 464T771 457T770 452Z" />
<glyph unicode="&#xdd;" glyph-name="Yacute" horiz-adv-x="912" d="M880 755Q882 752 882 745T860 718T783 680T685 659T639 664Q637 669 645 670T655 671Q707 675 764 712T822 772Q822 776 820 779T821 783T845 776T880 755ZM558 439T543 412T468 284T377 120T346
25T371 -6Q399 -6 457 43T564 150T634 238Q796 473 834 600Q841 623 849 625Q858 633 863 619Q882 568 882 489T850 287Q795 71 709 -45Q642 -136 556 -192T381 -249T231 -197T156 -35Q155 -27 157 -24T163 -24T168 -33Q181 -117 231 -170T349 -223Q446 -223 550
-104Q728 99 800 317Q847 457 847 555Q847 565 847 574Q823 493 766 391Q685 248 585 140Q429 -28 354 -28Q316 -28 316 12Q316 39 335 88T376 180Q418 261 469 347T531 469T542 525Q542 598 435 598T148 538Q24 495 24 459Q24 446 42 433Q47 430 41 430T31 432Q9
447 9 472Q9 528 70 564Q143 606 247 632Q359 661 450 661Q592 661 600 585Q600 577 600 565T595 531T574 474Z" />
<glyph unicode="&#xde;" glyph-name="Thorn" horiz-adv-x="539" d="M436 457Q490 464 531 464T618 451T692 408Q726 369 726 314Q726 240 660 165Q622 122 568 90Q485 42 368 6T168 -30Q146 -30 125 -28Q35 -161 12 -219Q6 -236 -8 -236Q-15 -236 -15 -226Q-15
-187 92 -23Q52 -13 26 8Q-4 32 -4 58T14 101Q22 108 22 103T17 89T11 71Q11 10 102 -8Q136 43 223 179T344 368Q154 323 84 263Q67 250 72 242T74 232T66 235Q45 248 39 266T33 292T38 306Q69 352 173 391T399 451Q521 635 528 635Q532 635 536 626T539 613Q493
546 436 457ZM158 -13Q247 -13 369 27T554 109T647 195T677 276T654 342Q614 392 510 392Q450 392 386 377Q177 44 137 -12Q147 -13 158 -13Z" />
<glyph unicode="&#xdf;" glyph-name="germandbls" horiz-adv-x="643" d="M704 565Q704 524 656 481Q581 413 458 370Q436 363 436 355Q438 348 455 347Q538 344 587 317Q646 284 646 224Q646 145 566 69Q433 -58 222 -58Q167 -58 125 -47T69 -27T38 -3T29 12Q34
12 59 3T151 -6T296 9T428 56T515 126Q554 173 554 221Q554 247 540 274T484 315T409 330T358 328T340 340Q341 359 374 372L393 378Q639 438 639 544Q639 631 522 631Q461 631 398 582Q259 473 -20 -20Q-64 -98 -75 -111L-99 -138Q-117 -158 -146 -170Q-150 -171
-155 -171T-163 -168T-166 -162Q-166 -156 -154 -150Q-110 -130 -24 23Q-6 54 36 132Q129 307 169 367T220 445T258 497T303 551T350 596T406 636Q472 669 537 669Q704 669 704 565Z" />
<glyph unicode="&#xe0;" glyph-name="agrave" horiz-adv-x="482" d="M329 347T284 367T222 405T205 430T209 443T234 454T259 460T262 457T260 448Q260 428 305 393T396 350Q408 348 410 344Q412 336 371 341ZM356 141T345 126T316 85T298 41T313 23T364 42Q434
82 519 162Q529 172 532 165Q532 164 532 161T528 154Q356 -8 278 -8Q255 -8 240 7T224 44Q224 65 242 108Q197 52 146 22T65 -9T16 8T-5 52Q-5 126 61 197Q111 250 185 272Q218 283 249 283T310 266T348 224Q378 224 391 202Q393 199 393 192T386 176T367 154ZM294
253Q273 253 244 240Q193 218 147 164Q74 78 74 38Q74 17 91 17Q105 17 137 35T223 106Q226 109 246 128T280 161Q327 210 327 231T294 253Z" />
<glyph unicode="&#xe1;" glyph-name="aacute" horiz-adv-x="482" d="M448 428Q452 424 452 416T430 388T353 350T255 330T209 335Q207 341 225 342Q277 345 334 382T392 442Q392 447 391 450T392 454T413 449T448 428ZM356 141T345 126T316 85T298 41T313 23T364
42Q434 82 519 162Q529 172 532 165Q532 164 532 161T528 154Q356 -8 278 -8Q255 -8 240 7T224 44Q224 65 242 108Q197 52 146 22T65 -9T16 8T-5 52Q-5 126 61 197Q111 250 185 272Q218 283 249 283T310 266T348 224Q378 224 391 202Q393 199 393 192T386 176T367
154ZM294 253Q273 253 244 240Q193 218 147 164Q74 78 74 38Q74 17 91 17Q105 17 137 35T223 106Q226 109 246 128T280 161Q327 210 327 231T294 253Z" />
<glyph unicode="&#xe2;" glyph-name="acircumflex" horiz-adv-x="482" d="M356 141T345 126T316 85T298 41T313 23T364 42Q434 82 519 162Q529 172 532 165Q532 164 532 161T528 154Q356 -8 278 -8Q255 -8 240 7T224 44Q224 65 242 108Q197 52 146 22T65 -9T16
8T-5 52Q-5 126 61 197Q111 250 185 272Q218 283 249 283T310 266T348 224Q378 224 391 202Q393 199 393 192T386 176T367 154ZM74 38Q74 17 91 17Q105 17 137 35T223 106Q226 109 246 128T279 161T302 186T320 211Q332 234 320 246Q309 253 291 253T244 240Q193
218 147 164Q74 78 74 38ZM431 349Q434 349 441 350T449 347Q449 342 430 337T389 331T346 344Q315 366 315 399Q282 372 245 356T182 340Q181 340 179 340Q174 340 174 343T178 352T185 358T190 358Q212 358 249 377T321 425Q321 426 323 428Q334 444 356 462T381
481T377 468T370 440Q370 394 391 372T431 349Z" />
<glyph unicode="&#xe3;" glyph-name="atilde" horiz-adv-x="482" d="M428 362Q392 335 350 335Q337 335 323 344T290 367Q270 381 258 381Q235 381 204 350Q196 341 193 345T195 356Q254 412 289 412T347 402T380 386T398 381T414 384Q433 394 439 407Q448 405
450 398Q453 382 428 362ZM356 141T345 126T316 85T298 41T313 23T364 42Q434 82 519 162Q529 172 532 165Q532 164 532 161T528 154Q356 -8 278 -8Q255 -8 240 7T224 44Q224 65 242 108Q197 52 146 22T65 -9T16 8T-5 52Q-5 126 61 197Q111 250 185 272Q218 283
249 283T310 266T348 224Q378 224 391 202Q393 199 393 192T386 176T367 154ZM294 253Q273 253 244 240Q193 218 147 164Q74 78 74 38Q74 17 91 17Q105 17 137 35T223 106Q226 109 246 128T280 161Q327 210 327 231T294 253Z" />
<glyph unicode="&#xe4;" glyph-name="adieresis" horiz-adv-x="482" d="M371 385Q387 404 409 404Q416 404 424 397T431 376T417 348T390 330T365 333T356 356T371 385ZM237 371T249 385T271 401T287 404T302 398T310 376T296 347T268 330T243 333T235 356ZM356
141T345 126T316 85T298 41T313 23T364 42Q434 82 519 162Q529 172 532 165Q532 164 532 161T528 154Q356 -8 278 -8Q255 -8 240 7T224 44Q224 65 242 108Q197 52 146 22T65 -9T16 8T-5 52Q-5 126 61 197Q111 250 185 272Q218 283 249 283T310 266T348 224Q378
224 391 202Q393 199 393 192T386 176T367 154ZM294 253Q273 253 244 240Q193 218 147 164Q74 78 74 38Q74 17 91 17Q105 17 137 35T223 106Q226 109 246 128T280 161Q327 210 327 231T294 253Z" />
<glyph unicode="&#xe5;" glyph-name="aring" horiz-adv-x="482" d="M362 491Q422 491 422 443Q422 408 387 371T294 316Q273 310 258 310Q225 310 220 339Q213 374 246 418Q267 446 288 464Q322 491 362 491ZM356 141T345 126T316 85T298 41T313 23T364 42Q434
82 519 162Q529 172 532 165Q532 164 532 161T528 154Q356 -8 278 -8Q255 -8 240 7T224 44Q224 65 242 108Q197 52 146 22T65 -9T16 8T-5 52Q-5 126 61 197Q111 250 185 272Q218 283 249 283T310 266T348 224Q378 224 391 202Q393 199 393 192T386 176T367 154ZM333
451Q304 451 272 417T240 357T263 330Q275 330 297 339T342 372Q368 400 368 421T358 445Q346 451 333 451ZM294 253Q273 253 244 240Q193 218 147 164Q74 78 74 38Q74 17 91 17Q105 17 137 35T223 106Q226 109 246 128T280 161Q327 210 327 231T294 253Z" />
<glyph unicode="&#xe6;" glyph-name="ae" horiz-adv-x="586" d="M532 216Q532 245 496 245Q443 245 373 163Q318 98 318 54Q318 35 333 23T378 10Q426 10 499 61T622 161Q634 172 634 161Q634 154 628 148Q534 63 491 35Q415 -16 347 -17Q331 -19 316 -19Q272
-19 249 1T225 44Q225 66 242 108Q197 52 146 22T65 -9T16 8T-5 52Q-5 126 61 197Q111 250 185 272Q218 283 249 283T307 268T344 234Q409 276 476 276Q533 276 552 252Q560 240 560 227T551 197Q533 166 484 143T390 119Q373 119 371 122T373 127L385 128Q425
128 478 156T532 216ZM294 253Q273 253 244 240Q193 218 147 164Q74 78 74 38Q74 17 91 17Q105 17 137 35T223 106Q226 109 246 128T280 161Q327 210 327 231T294 253Z" />
<glyph unicode="&#xe7;" glyph-name="ccedilla" horiz-adv-x="342" d="M290 237Q290 256 270 256Q253 256 218 241T138 174Q85 111 85 62Q85 25 113 12Q122 8 134 8Q175 8 230 43T374 159Q388 173 388 159Q388 153 382 148Q260 36 202 10T99 -17Q87 -17 75 -15Q53
-31 53 -52Q53 -62 74 -92T96 -141Q96 -145 95 -148Q82 -199 -49 -199Q-54 -199 -54 -195Q-54 -185 -28 -183T7 -178T27 -166Q43 -150 43 -136T34 -103T24 -74Q24 -35 58 -11Q-4 5 -4 68Q-4 153 72 214T232 276Q284 276 302 252Q313 240 313 227T306 199T284 184T279
203T290 237Z" />
<glyph unicode="&#xe8;" glyph-name="egrave" horiz-adv-x="342" d="M233 347T188 367T126 405T109 430T113 443T138 454T163 460T167 457Q164 452 164 447Q164 427 209 392T300 350Q312 348 313 345Q315 336 274 341ZM233 156Q286 185 286 215T250 245Q233 245
214 236Q172 217 133 170Q85 112 85 62Q85 43 95 27T133 10Q180 10 252 59T376 159Q388 171 388 160Q388 153 382 148Q345 114 333 103T283 62T223 20Q152 -17 103 -17T25 5T-4 68Q-4 153 72 214T231 276Q287 276 306 252Q314 240 314 227T305 197Q287 166 238
143T144 119Q127 119 126 122T128 126T139 128Q179 128 233 156Z" />
<glyph unicode="&#xe9;" glyph-name="eacute" horiz-adv-x="342" d="M402 426Q404 423 404 415T382 388T305 350T207 330T160 335Q160 338 165 340L176 342Q209 344 251 363T319 405T344 443Q344 447 343 450T344 454T367 447T402 426ZM233 156Q286 185 286 215T250
245Q233 245 214 236Q172 217 133 170Q85 112 85 62Q85 43 95 27T133 10Q180 10 252 59T376 159Q388 171 388 160Q388 153 382 148Q345 114 333 103T283 62T223 20Q152 -17 103 -17T25 5T-4 68Q-4 153 72 214T231 276Q287 276 306 252Q314 240 314 227T305 197Q287
166 238 143T144 119Q127 119 126 122T128 126T139 128Q179 128 233 156Z" />
<glyph unicode="&#xea;" glyph-name="ecircumflex" horiz-adv-x="342" d="M233 156Q286 185 286 215T250 245Q233 245 214 236Q172 217 133 170Q85 112 85 62Q85 43 95 27T133 10Q180 10 252 59T376 159Q388 171 388 163T382 148Q345 114 333 103T283 62T223 20Q152
-17 103 -17T25 5T-4 68Q-4 153 72 214T231 276Q287 276 306 252Q314 240 314 227T305 197Q287 166 238 143T144 119Q127 119 126 122T128 126T139 128Q179 128 233 156ZM470 349Q428 343 401 337T352 331T310 344Q278 365 277 398Q204 340 147 340Q136 340 136
343T140 352T147 358T152 358Q174 358 211 377T283 425Q283 426 285 428Q299 447 320 464T344 481T342 474T338 453T358 413T413 368T470 349Z" />
<glyph unicode="&#xeb;" glyph-name="edieresis" horiz-adv-x="342" d="M311 371T323 385T345 401T361 404T376 398T384 376T370 347T342 330T317 333T309 356ZM189 371T201 385T223 401T239 404T254 398T262 376T248 347T221 330T195 333T187 356ZM233 156Q286
185 286 215T250 245Q233 245 214 236Q172 217 133 170Q85 112 85 62Q85 43 95 27T133 10Q180 10 252 59T376 159Q388 171 388 160Q388 153 382 148Q345 114 333 103T283 62T223 20Q152 -17 103 -17T25 5T-4 68Q-4 153 72 214T231 276Q287 276 306 252Q314 240
314 227T305 197Q287 166 238 143T144 119Q127 119 126 122T128 126T139 128Q179 128 233 156Z" />
<glyph unicode="&#xec;" glyph-name="igrave" horiz-adv-x="272" d="M188 340T143 360T81 399T64 424T68 437T93 448T119 454T121 450T119 441Q119 421 164 386T255 344Q267 342 268 338Q270 330 229 335ZM189 252Q148 210 121 146T93 55T113 29T181 59T290 144Q303
156 303 141Q303 139 301 137Q253 95 220 68T142 17T67 -8Q31 -8 14 8T-4 43Q-4 79 9 100T53 158Q42 149 19 128T-14 100T-23 104Q-23 111 -7 124T62 190T135 253T167 263T186 260T189 252Z" />
<glyph unicode="&#xed;" glyph-name="iacute" horiz-adv-x="272" d="M385 428Q389 424 389 416T367 388T290 350T192 330T145 335Q145 338 150 340L161 342Q194 344 236 363T304 405T329 443Q329 447 328 450T329 454T350 449T385 428ZM189 252Q148 210 121 146T93
55T113 29T181 59T290 144Q303 156 303 141Q303 139 301 137Q253 95 220 68T142 17T67 -8Q31 -8 14 8T-4 43Q-4 79 9 100T53 158Q42 149 19 128T-14 100T-23 104Q-23 111 -7 124T62 190T135 253T167 263T186 260T189 252Z" />
<glyph unicode="&#xee;" glyph-name="icircumflex" horiz-adv-x="272" d="M189 252Q148 210 121 146T93 55T113 29T181 59T290 144Q300 153 303 143Q304 139 301 137Q253 95 220 68T142 17T67 -8Q31 -8 14 8T-4 43Q-4 79 9 100T53 158Q42 149 19 128T-14 100T-23
104Q-23 111 -7 124T62 190T135 253T167 263T186 260T189 252ZM321 349Q325 349 332 350T340 347Q340 342 321 337T280 331T237 344Q205 366 205 399Q172 372 135 356T72 340Q64 340 64 343T68 352T75 358T80 358Q102 358 139 377T211 425Q211 426 213 428Q224
444 247 462T272 481T267 469T260 434T271 390Q290 349 321 349Z" />
<glyph unicode="&#xef;" glyph-name="idieresis" horiz-adv-x="272" d="M240 371T252 385T274 401T290 404T305 398T313 377T300 348T272 330T246 333T238 356ZM118 371T130 385T152 401T168 404T183 398T191 376T177 347T150 330T124 333T116 356ZM189 252Q148
210 121 146T93 55T113 29T181 59T290 144Q303 156 303 141Q303 139 301 137Q253 95 220 68T142 17T67 -8Q31 -8 14 8T-4 43Q-4 79 9 100T53 158Q42 149 19 128T-14 100T-23 104Q-23 111 -7 124T62 190T135 253T167 263T186 260T189 252Z" />
<glyph unicode="&#xf0;" glyph-name="eth" horiz-adv-x="400" d="M-60 493Q-60 551 20 551Q73 551 117 525T207 441Q244 441 312 433Q318 432 321 428T322 419T313 415Q269 414 231 409Q252 380 296 311T353 219T379 159T393 96T378 40T329 -13Q312 -25 288 -25T230
-10Q168 19 116 80Q47 161 47 231Q47 269 74 291Q92 302 114 302T161 292Q212 271 262 221Q245 250 214 311T168 400Q70 383 58 381Q48 379 51 406T66 434Q108 438 143 440Q93 512 35 524Q25 528 13 528Q-39 528 -39 493Q-39 486 -44 484T-55 483T-60 493ZM340
93T304 148T225 226Q200 239 184 239Q137 239 137 185Q137 131 173 76T252 -2Q276 -15 292 -15Q340 -15 340 39Z" />
<glyph unicode="&#xf1;" glyph-name="ntilde" horiz-adv-x="428" d="M428 362Q392 335 350 335Q337 335 323 344T290 367Q270 381 258 381Q235 381 204 350Q196 341 193 345T195 356Q254 412 289 412T347 402T380 386T398 381T414 384Q433 394 439 407Q448 405
450 398Q453 382 428 362ZM303 224Q317 240 317 249T299 258T240 223L216 200Q184 167 133 99Q108 53 73 13Q50 -12 32 -12Q30 -12 28 -12Q2 -12 -22 9Q-19 13 34 79Q142 216 142 264Q142 268 142 271Q127 247 90 203T15 124Q6 116 5 124T8 136Q71 190 135 287Q130
292 137 292Q139 292 141 291Q174 278 174 226Q174 190 156 146Q195 197 215 219Q267 277 317 277T376 234Q377 228 377 216T367 182T322 113T283 54T278 35T287 28Q325 23 465 163Q477 176 477 163Q477 157 471 151Q370 44 296 9Q241 -19 210 0Q191 12 191 33T199
77Q218 128 303 224Z" />
<glyph unicode="&#xf2;" glyph-name="ograve" horiz-adv-x="373" d="M251 347T206 367T144 405T127 430T131 443T156 454T181 460T185 457Q182 452 182 447Q182 427 227 392T318 350Q330 348 331 345Q333 336 292 341ZM176 17Q109 -17 59 -17Q17 -17 2 11Q-6 25
-6 43Q-6 84 13 123Q0 110 -12 102Q-22 93 -22 105Q-22 112 -4 126T51 177T108 231Q168 281 235 281Q260 281 286 268Q324 250 324 202Q324 144 266 83Q243 57 202 31Q284 44 376 130Q381 134 385 134T389 129T385 121Q275 17 180 17Q178 17 176 17ZM220 216Q198
216 159 183Q112 143 112 87Q112 47 144 35Q173 53 200 82Q248 136 248 179Q248 200 235 212Q228 216 220 216ZM184 227Q139 227 86 183T16 84Q11 65 11 43T29 6Q40 1 62 1T129 26Q88 44 88 89Q88 139 125 177T206 225Q195 227 184 227Z" />
<glyph unicode="&#xf3;" glyph-name="oacute" horiz-adv-x="373" d="M436 440Q440 436 440 428T418 400T341 362T243 342T197 347Q195 353 220 354T287 375T355 417T380 455Q380 459 379 462T380 466T401 461T436 440ZM176 17Q109 -17 59 -17Q17 -17 2 11Q-6 25
-6 43Q-6 84 13 123Q0 110 -12 102Q-22 93 -22 105Q-22 112 -4 126T51 177T108 231Q168 281 235 281Q260 281 286 268Q324 250 324 202Q324 144 266 83Q243 57 202 31Q284 44 376 130Q381 134 385 134T389 129T385 121Q275 17 180 17Q178 17 176 17ZM220 216Q198
216 159 183Q112 143 112 87Q112 47 144 35Q173 53 200 82Q248 136 248 179Q248 200 235 212Q228 216 220 216ZM184 227Q139 227 86 183T16 84Q11 65 11 43T29 6Q40 1 62 1T129 26Q88 44 88 89Q88 139 125 177T206 225Q195 227 184 227Z" />
<glyph unicode="&#xf4;" glyph-name="ocircumflex" horiz-adv-x="373" d="M176 17Q109 -17 59 -17Q17 -17 2 11Q-6 25 -6 43Q-6 84 13 123Q0 110 -12 102Q-22 93 -22 105Q-22 112 -4 126T51 177T108 231Q168 281 235 281Q260 281 286 268Q324 250 324 202Q324
144 266 83Q243 57 202 31Q284 44 376 130Q381 134 385 134T389 129T385 121Q275 17 180 17Q178 17 176 17ZM220 216Q198 216 159 183Q112 143 112 87Q112 47 144 35Q173 53 200 82Q248 136 248 179Q248 200 235 212Q228 216 220 216ZM184 227Q139 227 86 183T16
84Q11 65 11 43T29 6Q40 1 62 1T129 26Q88 44 88 89Q88 139 125 177T206 225Q195 227 184 227ZM393 349Q397 349 404 350T412 347Q412 342 393 337T352 331T310 344Q278 365 277 398Q204 340 147 340Q136 340 136 343T140 352T147 358T152 358Q174 358 211 377T283
425Q283 426 285 428Q299 447 320 464T344 481T339 469T332 434T343 390Q362 349 393 349Z" />
<glyph unicode="&#xf5;" glyph-name="otilde" horiz-adv-x="373" d="M176 17Q109 -17 59 -17Q17 -17 2 11Q-6 25 -6 43Q-6 84 13 123Q0 110 -12 102Q-22 93 -22 105Q-22 112 -4 126T51 177T108 231Q168 281 235 281Q260 281 286 268Q324 250 324 202Q324 144 266
83Q243 57 202 31Q284 44 376 130Q381 134 385 134T389 129T385 121Q275 17 180 17Q178 17 176 17ZM220 216Q198 216 159 183Q112 143 112 87Q112 47 144 35Q173 53 200 82Q248 136 248 179Q248 200 235 212Q228 216 220 216ZM184 227Q139 227 86 183T16 84Q11
65 11 43T29 6Q40 1 62 1T129 26Q88 44 88 89Q88 139 125 177T206 225Q195 227 184 227Z" />
<glyph unicode="&#xf6;" glyph-name="odieresis" horiz-adv-x="373" d="M335 371T347 385T369 401T385 404T400 398T408 377T395 348T367 330T341 333T333 356ZM209 341T211 356T227 387T264 403Q271 403 279 397T286 376T272 347T245 330T219 333ZM176 17Q109
-17 59 -17Q17 -17 2 11Q-6 25 -6 43Q-6 84 13 123Q0 110 -12 102Q-22 93 -22 105Q-22 112 -4 126T51 177T108 231Q168 281 235 281Q260 281 286 268Q324 250 324 202Q324 144 266 83Q243 57 202 31Q284 44 376 130Q381 134 385 134T389 129T385 121Q275 17 180
17Q178 17 176 17ZM220 216Q198 216 159 183Q112 143 112 87Q112 47 144 35Q173 53 200 82Q248 136 248 179Q248 200 235 212Q228 216 220 216ZM184 227Q139 227 86 183T16 84Q11 65 11 43T29 6Q40 1 62 1T129 26Q88 44 88 89Q88 139 125 177T206 225Q195 227 184
227Z" />
<glyph unicode="&#xf7;" glyph-name="divide" horiz-adv-x="438" d="M299 264T286 261T264 257T246 264T236 291T256 332T306 355Q314 355 323 347T333 330Q333 300 316 282ZM95 156Q87 155 87 169T91 196T103 210Q179 218 246 218T371 209Q383 207 383 199T373
191Q298 189 255 182T161 167T95 156ZM134 29Q122 29 113 37T103 54Q103 82 120 101Q144 127 170 127Q181 127 190 120T200 93T180 51T134 29Z" />
<glyph unicode="&#xf8;" glyph-name="oslash" horiz-adv-x="373" d="M275 368L298 371Q305 371 306 368L302 359L243 280Q305 274 320 227Q324 215 324 199T313 152T273 89T202 31Q284 44 376 130Q381 134 385 134T389 129T385 121Q275 17 180 17Q178 17 176 17Q111
-18 64 -18Q53 -18 44 -16Q17 -64 11 -78T1 -93T-6 -89Q-15 -79 23 -10Q-6 6 -6 47Q-6 84 13 123Q0 110 -12 102Q-22 93 -22 104Q-22 111 -5 126T49 176T103 227Q151 268 205 278Q268 368 275 368ZM235 212Q229 215 219 215T190 205Q168 174 112 92Q111 48 144
35Q173 53 200 82Q248 136 248 179Q248 200 235 212ZM88 100L89 106Q98 165 154 202L170 226Q119 218 71 168Q10 104 10 49Q10 21 29 6L31 5Q52 41 88 100ZM129 26Q101 38 93 62Q77 38 55 2Q89 4 129 26Z" />
<glyph unicode="&#xf9;" glyph-name="ugrave" horiz-adv-x="458" d="M213 137T198 117T167 74T150 41T160 30Q178 30 213 62L245 93Q294 146 326 188T368 240Q384 259 403 260Q433 260 458 238Q452 229 439 212T412 178T381 137T350 94T324 52T304 13Q289 -31
305 -42Q310 -47 303 -47Q301 -47 299 -46Q261 -33 261 16T293 132Q184 -6 118 -6Q68 -6 68 41Q68 58 78 91T176 224Q188 237 188 246T176 255T140 237T74 180T22 131T11 134Q11 140 18 145Q48 171 81 205T139 258T196 277Q232 277 245 250Q250 240 250 224T242
189T224 153ZM402 337Q415 335 415 331T405 326Q352 326 298 350T228 393T211 418T215 430T240 441T265 447T268 444T266 436Q266 416 311 380T402 337Z" />
<glyph unicode="&#xfa;" glyph-name="uacute" horiz-adv-x="458" d="M213 137T198 117T167 74T150 41T160 30Q178 30 213 62L245 93Q294 146 326 188T368 240Q384 259 403 260Q433 260 458 238Q452 229 439 212T412 178T381 137T350 94T324 52T304 13Q289 -31
305 -42Q310 -47 303 -47Q301 -47 299 -46Q261 -33 261 16T293 132Q184 -6 118 -6Q68 -6 68 41Q68 58 78 91T176 224Q188 237 188 246T176 255T140 237T74 180T22 131T11 134Q11 140 18 145Q48 171 81 205T139 258T196 277Q232 277 245 250Q250 240 250 224T242
189T224 153ZM499 422Q503 418 503 410T481 383T404 344Q344 323 283 323Q259 323 259 330Q259 335 276 336Q328 339 385 376T443 436Q443 441 442 444T443 448T464 443T499 422Z" />
<glyph unicode="&#xfb;" glyph-name="ucircumflex" horiz-adv-x="458" d="M213 137T198 117T167 74T150 41T160 30Q178 30 213 62L245 93Q294 146 326 188T368 240Q384 259 403 260Q433 260 458 238Q452 229 439 212T412 178T381 137T350 94T324 52T304 13Q289
-31 305 -42Q310 -47 303 -47Q301 -47 299 -46Q261 -33 261 16T293 132Q184 -6 118 -6Q68 -6 68 41Q68 58 78 91T176 224Q188 237 188 246T176 255T140 237T74 180T22 131T11 134Q11 140 18 145Q48 171 81 205T139 258T196 277Q232 277 245 250Q250 240 250 224T242
189T224 153ZM470 349Q474 349 481 350T489 347Q489 342 470 337T429 331T386 344Q354 366 354 399Q321 372 284 356T221 340Q220 340 218 340Q213 340 213 343T217 352T224 358T229 358Q251 358 288 377T360 425Q360 426 362 428Q373 444 396 462T421 481T416
469T409 434T420 390Q439 349 470 349Z" />
<glyph unicode="&#xfc;" glyph-name="udieresis" horiz-adv-x="458" d="M213 137T198 117T167 74T150 41T160 30Q178 30 213 62L245 93Q294 146 326 188T368 240Q384 259 403 260Q433 260 458 238Q452 229 439 212T412 178T381 137T350 94T324 52T304 13Q289 -31
305 -42Q310 -47 303 -47Q301 -47 299 -46Q261 -33 261 16T293 132Q184 -6 118 -6Q68 -6 68 41Q68 58 78 91T176 224Q188 237 188 246T176 255T140 237T74 180T22 131T11 134Q11 140 18 145Q48 171 81 205T139 258T196 277Q232 277 245 250Q250 240 250 224T242
189T224 153ZM311 360T299 347T277 331T259 328T245 334T238 354T251 384Q268 404 282 404T305 398T313 376ZM435 392T435 377T419 345T381 328Q374 328 367 334T360 354T375 386T412 404Q419 404 427 398Z" />
<glyph unicode="&#xfd;" glyph-name="yacute" horiz-adv-x="417" d="M478 492Q482 488 482 480T460 453T383 414T285 394T239 399Q237 405 255 406Q307 409 364 446T422 506Q422 511 421 514T422 518T443 513T478 492ZM176 224Q188 237 188 246T176 255T140 237T66
173T8 120T-2 119T10 136T68 193T138 258T195 277Q231 277 244 250Q250 240 250 224T242 189T224 154T197 116T165 72T149 40T157 30Q196 30 303 160Q354 221 390 274Q422 348 446 355Q455 358 468 358T487 347T493 330T485 321T470 317T461 318Q432 318 412 276Q400
250 382 193T347 88T294 -24T204 -144T79 -238T-70 -276T-197 -241T-261 -133Q-261 -128 -259 -126T-254 -126T-251 -132Q-241 -188 -198 -223T-97 -258Q-22 -258 56 -201T203 -50T365 224Q335 179 310 148Q185 -6 118 -6Q67 -6 67 42Q67 59 74 82Q88 122 176 224Z"
/>
<glyph unicode="&#xfe;" glyph-name="thorn" horiz-adv-x="373" d="M-147 -260Q-157 -260 -157 -233Q-157 -191 -107 -89T27 136Q-21 88 -21 102Q-21 110 -10 120Q39 162 78 212T222 388T337 524Q349 536 364 536T393 523Q393 522 278 383T143 217Q191 262 240
280Q264 289 283 289T321 277T340 231Q340 161 272 83Q221 23 162 -4Q129 -20 107 -20T67 -7T48 39T65 108Q-141 -183 -141 -243Q-141 -249 -140 -252T-141 -258T-147 -260ZM63 44Q63 1 96 1Q116 1 157 20T237 85T292 168T308 227T296 263Q288 269 271 269T220
252Q166 227 120 172Q89 136 76 101T63 44Z" />
<glyph unicode="&#xff;" glyph-name="ydieresis" horiz-adv-x="417" d="M388 412T390 426T407 457T443 474Q450 474 458 468T465 446T451 417T423 400T398 404ZM266 412T268 426T285 457T321 474Q328 474 336 468T343 446T329 417T302 400T276 404ZM176 224Q188
237 188 246T176 255T140 237T66 173T8 120T-2 119T10 136T68 193T138 258T195 277Q231 277 244 250Q250 240 250 224T242 189T224 154T197 116T165 72T149 40T157 30Q196 30 303 160Q354 221 390 274Q422 348 446 355Q455 358 468 358T487 347T493 330T485 321T470
317T461 318Q432 318 412 276Q400 250 382 193T347 88T294 -24T204 -144T79 -238T-70 -276T-197 -241T-261 -133Q-261 -128 -259 -126T-254 -126T-251 -132Q-241 -188 -198 -223T-97 -258Q-22 -258 56 -201T203 -50T365 224Q335 179 310 148Q185 -6 118 -6Q67 -6
67 42Q67 59 74 82Q88 122 176 224Z" />
<glyph unicode="&#x2013;" glyph-name="endash" horiz-adv-x="438" d="M421 178Q374 182 337 182T276 180T240 177T201 173T166 168T129 162T98 157T94 156Q87 156 87 169T91 196T103 210Q190 217 237 217Q374 217 430 202Q437 200 437 194T433 183T421 178Z" />
<glyph unicode="&#x2014;" glyph-name="emdash" horiz-adv-x="688" d="M675 202Q682 200 682 194T678 183T666 178Q618 182 546 182T323 175T95 156Q95 156 94 156Q87 156 87 169T91 196T103 210Q189 217 281 217Q620 217 675 202Z" />
<glyph unicode="&#x2018;" glyph-name="quoteleft" horiz-adv-x="149" d="M44 358Q68 387 103 387Q112 387 119 381T127 366T124 344T102 312Q79 290 54 290T20 304T10 333Q10 365 46 414Q98 484 163 488Q164 488 166 488T169 485Q168 483 165 482Q121 477 86
440T44 358Z" />
<glyph unicode="&#x2019;" glyph-name="quoteright" horiz-adv-x="149" d="M145 424T153 410T162 381T148 332T94 264Q49 226 8 226Q4 226 4 229T8 233Q51 237 87 274T129 356Q106 327 73 327Q61 327 54 334T46 349Q46 376 69 399Q94 424 119 424Z" />
<glyph unicode="&#x201a;" glyph-name="quotesinglbase" horiz-adv-x="229" d="M131 90T139 76T148 47T134 -2T80 -70T-3 -108Q-9 -108 -10 -104Q-8 -102 -6 -101Q38 -97 74 -60T116 22L111 18Q86 -7 60 -7Q48 -7 41 0T33 15T36 37T58 68Q80 90 105 90Z" />
<glyph unicode="&#x201c;" glyph-name="quotedblleft" horiz-adv-x="413" d="M68 494Q91 523 127 523Q136 523 143 516T151 501Q151 474 128 451Q103 426 78 426T44 440T35 469T49 518T104 586Q148 624 189 624Q193 624 193 620Q191 618 189 617Q146 613 110 576T68
494ZM212 538T206 494Q235 523 262 523Q274 523 281 516T289 501T286 480T264 448Q242 426 217 426T183 440T174 469T188 518T242 586Q286 624 327 624Q331 624 332 620Q330 618 328 617Q284 613 248 576Z" />
<glyph unicode="&#x201d;" glyph-name="quotedblright" horiz-adv-x="413" d="M402 545Q402 513 366 463Q314 393 249 389Q243 389 243 392T247 396Q291 401 326 438T368 520Q352 499 325 492Q318 491 309 491T293 498T285 513Q285 541 308 562Q333 587 358 587T396
569Q402 559 402 545ZM230 520Q201 491 173 491Q162 491 155 497T147 512T150 534T172 566Q196 587 220 587T257 569Q263 559 263 545Q263 513 226 463Q175 393 110 389Q104 389 104 392T108 396Q152 401 188 438T230 520Z" />
<glyph unicode="&#x201e;" glyph-name="quotedblbase" horiz-adv-x="328" d="M271 22Q242 -7 215 -7Q203 -7 196 0T188 15T191 37T213 68Q235 90 260 90T299 72Q304 62 304 47T290 -2T236 -70T152 -108Q146 -108 146 -104Q147 -102 150 -101Q193 -97 229 -60T271
22ZM131 90T139 76T148 47T134 -2T80 -70T-3 -108Q-9 -108 -10 -104Q-8 -102 -6 -101Q38 -97 74 -60T116 22L111 18Q86 -7 60 -7Q48 -7 41 0T33 15T36 37T58 68Q80 90 105 90Z" />
<glyph unicode="&#x2022;" glyph-name="bullet" horiz-adv-x="501" d="M458 288T458 205T400 64T260 6T119 64T61 205T119 345T259 404T400 346Z" />
<glyph unicode="&#x2039;" glyph-name="guilsinglleft" horiz-adv-x="296" d="M119 150Q86 179 59 179T31 181Q31 186 48 195Q122 239 187 290T267 372Q272 384 285 384T299 382T298 378Q267 311 116 218Q141 207 166 177T202 108Q204 99 204 90Q204 62 183 38T159
14Q153 14 161 27Q168 42 168 57Q168 107 119 150Z" />
<glyph unicode="&#x203a;" glyph-name="guilsinglright" horiz-adv-x="294" d="M199 241Q232 212 259 212T286 210Q286 205 278 200T228 169T126 97T51 19Q46 8 27 7Q18 8 19 13Q52 79 202 172Q177 183 152 213T116 282Q114 291 114 301Q114 329 135 353T159 377Q165
377 157 364Q150 349 150 334Q150 284 199 241Z" />
</font>
</defs>
</svg>
